+1

Сирано / Cyrano (2021) BDRemux 1080p от селезень | D

Информация о фильме
Название: Сирано
Оригинальное название: Cyrano
Год выхода: 2021
Жанр: мюзикл, драма, мелодрама
Режиссер: Джо Райт
В ролях: Питер Динклэйдж, Хейли Беннетт, Келвин Харрисон, Бен Мендельсон, Моника Долан, Башир Салахуддин, Джошуа Джеймс, Аньяна Васан, Рут Шин, Глен Хансард

О фильме: Сирано де Бержерак - человек, опередивший свое время - одинаково искусен в словесных и фехтовальных поединках. Убежденный в том, что изъяны внешности делают его недостойным любви преданной подруги, блистательной Роксаны, он не рискует открыть ей свои чувства, а Роксана, тем временем, влюбляется с первого взгляда в Кристиана.

Страна: Великобритания, Канада, США
Студия: Bron Studios, Metro-Goldwyn-Mayer (MGM), Universal Pictures, Working Title Films
Продолжительность: 02:03:15
Перевод: Дублированный | Пифагор

Качество: BDRemux 1080p
Видео: MPEG-4 AVC, 1920x1080, 32.9 Mbit/s, 23.976 fps
Аудио #01: 48 kHz, AC3, 2.0, 192 Kbps | Дублированный | Пифагор | RUS |Сирано / Cyrano (2021) BDRemux 1080p от селезень | D
Аудио #02: 48 kHz, DTS-HD MA, 7.1, 4676 Kbps | Оригинал | ENG |
Субтитры: Русские (Forced, full), английские

Сирано / Cyrano (2021) BDRemux 1080p от селезень | D

Авторизуйтесь для получения доступа к скачиванию

Нет аккаунта? Регистрация открыта и займёт меньше минуты

Вход Регистрация

General
Unique ID : 211153038067998254634167597720912724750 (0x9EDA988C01FF914C22F59ABE8A93030E)
Complete name : F:\Video\Cyrano.2021.BDREMUX.1080p.seleZen.mkv
Format : Matroska
Format version : Version 4
File size : 32.5 GiB
Duration : 2 h 3 min
Overall bit rate mode : Variable
Overall bit rate : 37.8 Mb/s
Movie name : Cyrano 2021 from seleZen
Encoded date : UTC 2022-11-24 22:25:14
Writing application : mkvmerge v59.0.0 ('Shining Star') 64-bit
Writing library : libebml v1.4.2 + libmatroska v1.6.4

Video
ID : 1
ID in the original source m : 4113 (0x1011)
Format : AVC
Format/Info : Advanced Video Codec
Format profile : [email protected]
Format settings : CABAC / 4 Ref Frames
Format settings, CABAC : Yes
Format settings, Reference : 4 frames
Codec ID : V_MPEG4/ISO/AVC
Duration : 2 h 3 min
Bit rate mode : Variable
Bit rate : 32.9 Mb/s
Maximum bit rate : 35.0 Mb/s
Width : 1 920 pixels
Height : 1 080 pixels
Display aspect ratio : 16:9
Frame rate mode : Constant
Frame rate : 23.976 (24000/1001) FPS
Color space : YUV
Chroma subsampling : 4:2:0
Bit depth : 8 bits
Scan type : Progressive
Bits/(Pixel*Frame) : 0.662
Stream size : 28.3 GiB (87%)
Language : English
Default : Yes
Forced : No
Original source medium : Blu-ray

Audio #1
ID : 2
Format : AC-3
Format/Info : Audio Coding 3
Commercial name : Dolby Digital
Codec ID : A_AC3
Duration : 2 h 3 min
Bit rate mode : Constant
Bit rate : 192 kb/s
Channel(s) : 2 channels
Channel layout : L R
Sampling rate : 48.0 kHz
Frame rate : 31.250 FPS (1536 SPF)
Compression mode : Lossy
Stream size : 169 MiB (1%)
Title : Dub
Language : Russian
Service kind : Complete Main
Default : Yes
Forced : Yes

Audio #2
ID : 3
ID in the original source m : 4352 (0x1100)
Format : DTS XLL
Format/Info : Digital Theater Systems
Commercial name : DTS-HD Master Audio
Codec ID : A_DTS
Duration : 2 h 3 min
Bit rate mode : Variable
Bit rate : 4 676 kb/s
Channel(s) : 8 channels
Channel layout : C L R LFE Lb Rb Lss Rss
Sampling rate : 48.0 kHz
Frame rate : 93.750 FPS (512 SPF)
Bit depth : 24 bits
Compression mode : Lossless
Stream size : 4.03 GiB (12%)
Title : Original
Language : English
Default : No
Forced : No
Original source medium : Blu-ray

Text #1
ID : 4
Format : UTF-8
Codec ID : S_TEXT/UTF8
Codec ID/Info : UTF-8 Plain Text
Duration : 1 h 53 min
Bit rate : 24 b/s
Frame rate : 0.066 FPS
Count of elements : 445
Stream size : 20.2 KiB (0%)
Title : Forced
Language : Russian
Default : Yes
Forced : Yes

Text #2
ID : 5
Format : UTF-8
Codec ID : S_TEXT/UTF8
Codec ID/Info : UTF-8 Plain Text
Duration : 1 h 53 min
Bit rate : 73 b/s
Frame rate : 0.201 FPS
Count of elements : 1369
Stream size : 61.4 KiB (0%)
Title : Full
Language : Russian
Default : No
Forced : No

Text #3
ID : 6
Format : UTF-8
Codec ID : S_TEXT/UTF8
Codec ID/Info : UTF-8 Plain Text
Duration : 1 h 57 min
Bit rate : 67 b/s
Frame rate : 0.277 FPS
Count of elements : 1950
Stream size : 57.8 KiB (0%)
Title : Full
Language : English
Default : No
Forced : No

Text #4
ID : 7
Format : UTF-8
Codec ID : S_TEXT/UTF8
Codec ID/Info : UTF-8 Plain Text
Duration : 1 h 57 min
Bit rate : 74 b/s
Frame rate : 0.309 FPS
Count of elements : 2183
Stream size : 64.5 KiB (0%)
Title : SDH
Language : English
Default : No
Forced : No

Menu
00:00:00.000 : Chapter 01
00:08:05.860 : Chapter 02
00:19:01.766 : Chapter 03
00:27:09.378 : Chapter 04
00:30:47.012 : Chapter 05
00:37:32.917 : Chapter 06
00:43:56.050 : Chapter 07
00:47:38.731 : Chapter 08
00:51:26.166 : Chapter 09
00:53:31.250 : Chapter 10
00:58:43.270 : Chapter 11
01:05:29.551 : Chapter 12
01:15:32.528 : Chapter 13
01:23:13.530 : Chapter 14
01:27:38.837 : Chapter 15
01:32:47.479 : Chapter 16
01:40:25.603 : Chapter 17
01:43:17.358 : Chapter 18
01:51:12.249 : Chapter 19
01:55:40.100 : Chapter 20

Другие фильмы
У данной публикации пока нет комментариев.
Будь первым, оставь своё мнение в комментариях!
Информация
Посетители, находящиеся в группе Гости, не могут оставлять комментарии к данной публикации.
Самый популярный релиз недели
RePack от селезень 48.88 Gb ...

Кино копилка
...
Какую тему вы используете?

Реклама
Последние комментарии
...

Robot

Сегодня, 10:05

...

Desol

Вчера, 21:43

...

dembell56

7 декабря 2022 23:07

...

dembell56

6 декабря 2022 22:22

...

Ponta

6 декабря 2022 17:43

Реклама