+1

Автостопом на автобусе / Последний автобус / The Last Bus (2021) BDRip 720p от селезень | D

Информация о фильме
Название: Автостопом на автобусе
Оригинальное название: The Last Bus
Год выхода: 2021
Жанр: драма
Режиссер: Гиллис МакКиннон
В ролях: Тимоти Сполл, Филлис Логан, Натали Митсон, Бен Юинг, Патриша Пантера, Стивен Даффи, Саския Эшдаун, Скотт Кэмпбелл, Энн Кидд, Айла Гэвин

О фильме: После смерти жены Том отправляется на другой конец страны, пользуясь только местными бесплатными автобусами. Его маршрут глубоко символичен: ведь именно таким образом много лет назад они с женой приехали в их нынешний дом. Во время этого ностальгического путешествия Том становится настоящей знаменитостью и неожиданно для себя самого обретает будущее.

Страна: Великобритания, ОАЭ
Студия: Head Gear Films, Hurricane Films, Kreo Films FZ, Metrol Technology
Продолжительность: 01:25:49
Перевод: Дублированный | Paragraph Media

Качество: BDRip 720p
Видео: MPEG-4 AVC, 1280x536, 6000 Kbit/s, 24.000 fps
Аудио #01: 48 kHz, AC3, 5.1, 448 Kbps | Дублированный | Paragraph Media | RUS |Автостопом на автобусе / Последний автобус / The Last Bus (2021) BDRip 720p от селезень | D
Аудио #02: 48 kHz, AC3, 5.1, 640 Kbps | Оригинал | ENG |
Субтитры: Английские

Автостопом на автобусе / Последний автобус / The Last Bus (2021) BDRip 720p от селезень | D

Авторизуйтесь для получения доступа к скачиванию

Нет аккаунта? Регистрация открыта и займёт меньше минуты

Вход Регистрация

General
Unique ID : 175437868993794923354540100022588045046 (0x83FC1AC24FD51B0DA4C2D67B4AB276F6)
Complete name : D:\Videos\The.Last.Bus.2021.BDRip.720p.seleZen.mkv
Format : Matroska
Format version : Version 4
File size : 4.25 GiB
Duration : 1 h 25 min
Overall bit rate : 7 085 kb/s
Movie name : The Last Bus 2021 from seleZen
Encoded date : UTC 2022-11-24 08:40:31
Writing application : mkvmerge v59.0.0 ('Shining Star') 64-bit
Writing library : libebml v1.4.2 + libmatroska v1.6.4

Video
ID : 1
Format : AVC
Format/Info : Advanced Video Codec
Format profile : [email protected]
Format settings : CABAC / 12 Ref Frames
Format settings, CABAC : Yes
Format settings, Reference : 12 frames
Codec ID : V_MPEG4/ISO/AVC
Duration : 1 h 25 min
Bit rate : 6 000 kb/s
Width : 1 280 pixels
Height : 536 pixels
Display aspect ratio : 2.40:1
Frame rate mode : Constant
Frame rate : 24.000 FPS
Color space : YUV
Chroma subsampling : 4:2:0
Bit depth : 8 bits
Scan type : Progressive
Bits/(Pixel*Frame) : 0.364
Stream size : 3.59 GiB (85%)
Writing library : x264 core 164 r3085+55M seleZen t_mod_New [(8 & 10)[email protected] X86_64]
Encoding settings : cabac=1 / ref=12 / deblock=1:-2:-2 / analyse=0x3:0x133 / me=umh / subme=11 / psy=1 / fade_compensate=0.00 / psy_rd=1.02:0.02 / mixed_ref=1 / me_range=48 / chroma_me=1 / trellis=2 / 8x8dct=1 / cqm=0 / deadzone=21,11 / fast_pskip=0 / chroma_qp_offset=-3 / threads=17 / lookahead_threads=4 / sliced_threads=0 / nr=0 / decimate=0 / interlaced=0 / bluray_compat=0 / constrained_intra=0 / fgo=0 / bframes=10 / b_pyramid=2 / b_adapt=2 / b_bias=0 / direct=3 / weightb=1 / open_gop=0 / weightp=2 / keyint=240 / keyint_min=23 / scenecut=40 / intra_refresh=0 / rc_lookahead=60 / rc=2pass / mbtree=0 / bitrate=6000 / ratetol=1.0 / qcomp=0.60 / qpmin=0:0:0 / qpmax=51:51:51 / qpstep=4 / cplxblur=20.0 / qblur=0.5 / vbv_maxrate=50000 / vbv_bufsize=62500 / nal_hrd=none / filler=0 / ip_ratio=1.40 / pb_ratio=1.30 / aq=3:0.80 / aq-sensitivity=10.00 / aq-factor=1.00:1.00:1.00 / aq2=0 / aq3=0
Language : English
Default : Yes
Forced : No

Audio #1
ID : 2
Format : AC-3
Format/Info : Audio Coding 3
Commercial name : Dolby Digital
Codec ID : A_AC3
Duration : 1 h 25 min
Bit rate mode : Constant
Bit rate : 448 kb/s
Channel(s) : 6 channels
Channel layout : L R C LFE Ls Rs
Sampling rate : 48.0 kHz
Frame rate : 31.250 FPS (1536 SPF)
Compression mode : Lossy
Stream size : 275 MiB (6%)
Title : Dub
Language : Russian
Service kind : Complete Main
Default : Yes
Forced : Yes

Audio #2
ID : 3
Format : AC-3
Format/Info : Audio Coding 3
Commercial name : Dolby Digital
Codec ID : A_AC3
Duration : 1 h 25 min
Bit rate mode : Constant
Bit rate : 640 kb/s
Channel(s) : 6 channels
Channel layout : L R C LFE Ls Rs
Sampling rate : 48.0 kHz
Frame rate : 31.250 FPS (1536 SPF)
Compression mode : Lossy
Stream size : 393 MiB (9%)
Title : Original
Language : English
Service kind : Complete Main
Default : No
Forced : No

Text
ID : 4
Format : UTF-8
Codec ID : S_TEXT/UTF8
Codec ID/Info : UTF-8 Plain Text
Duration : 1 h 20 min
Bit rate : 34 b/s
Frame rate : 0.175 FPS
Count of elements : 848
Stream size : 20.2 KiB (0%)
Title : Full
Language : English
Default : No
Forced : No

Menu
00:00:00.000 : Chapter 01
00:04:24.541 : Chapter 02
00:09:55.375 : Chapter 03
00:14:59.791 : Chapter 04
00:20:53.625 : Chapter 05
00:26:14.666 : Chapter 06
00:31:50.791 : Chapter 07
00:37:23.416 : Chapter 08
00:41:44.250 : Chapter 09
00:49:52.500 : Chapter 10
00:53:57.166 : Chapter 11
00:58:35.083 : Chapter 12
01:02:44.208 : Chapter 13
01:09:26.750 : Chapter 14
01:16:27.666 : Chapter 15
01:22:22.458 : Chapter 16

Другие фильмы
У данной публикации пока нет комментариев.
Будь первым, оставь своё мнение в комментариях!
Информация
Посетители, находящиеся в группе Гости, не могут оставлять комментарии к данной публикации.
Самый популярный релиз недели
RePack от селезень 48.88 Gb ...

Кино копилка
...
Какую тему вы используете?

Реклама
Последние комментарии
...

Desol

Вчера, 21:43

...

dembell56

7 декабря 2022 23:07

...

dembell56

6 декабря 2022 22:22

...

Ponta

6 декабря 2022 17:43

...

Vostorg

6 декабря 2022 02:43

Реклама