+4

Костюм / The Outfit (2022) BDRemux 1080p от селезень | D

Информация о фильме
Название: Костюм
Оригинальное название: The Outfit
Год выхода: 2022
Жанр: триллер, драма, криминал
Режиссер: Грэм Мур
В ролях: Марк Райлэнс, Зои Дойч, Джонни Флинн, Дилан О'Брайен, Никки Амука-Бёрд, Саймон Расселл Бил, Джон Гамли-Мейсон, Стивен Нокс, Стив Чатфилд, Михал Форейтек

О фильме: 1956 год. Лондонский портной Леонард переехал в Чикаго, где открыл своё ателье. Помимо прочих, его клиентами являются и гангстеры. Однажды вечером в ателье появляются раненый сын влиятельного бандита и его телохранитель, попавшие в засаду конкурирующей банды.

Страна: Великобритания, США
Студия: FilmNation Entertainment, Focus Features, Scoop Productions (II)
Продолжительность: 01:44:58
Перевод: Дублированный

Качество: BDRemux 1080p
Видео: MPEG-4 AVC, 1920x1080, 36.7 Mbit/s, 23.976 fps
Аудио #01: 48 kHz, AC3, 5.1, 384 Kbps | Дублированный | RUS |Костюм / The Outfit (2022) BDRemux 1080p от селезень | D
Аудио #02: 48 kHz, DTS-HD MA, 5.1, 3357 Kbps | Оригинал | ENG |
Субтитры: Русские (Forced, full), английские

Костюм / The Outfit (2022) BDRemux 1080p от селезень | D

Авторизуйтесь для получения доступа к скачиванию

Нет аккаунта? Регистрация открыта и займёт меньше минуты

Вход Регистрация

General
Unique ID : 12392903338677092767609877261473322373 (0x952C94F2315611F5273E1AEB1D09585)
Complete name : E:\Video1\The.Outfit.2022.BDREMUX.1080p.seleZen.mkv
Format : Matroska
Format version : Version 4
File size : 29.7 GiB
Duration : 1 h 44 min
Overall bit rate mode : Variable
Overall bit rate : 40.5 Mb/s
Movie name : The Outfit 2022 from seleZen
Encoded date : UTC 2022-09-22 20:04:53
Writing application : mkvmerge v59.0.0 ('Shining Star') 64-bit
Writing library : libebml v1.4.2 + libmatroska v1.6.4

Video
ID : 1
ID in the original source m : 4113 (0x1011)
Format : AVC
Format/Info : Advanced Video Codec
Format profile : [email protected]
Format settings : CABAC / 2 Ref Frames
Format settings, CABAC : Yes
Format settings, Reference : 2 frames
Format settings, GOP : M=1, N=10
Codec ID : V_MPEG4/ISO/AVC
Duration : 1 h 44 min
Bit rate mode : Variable
Bit rate : 36.7 Mb/s
Width : 1 920 pixels
Height : 1 080 pixels
Display aspect ratio : 16:9
Frame rate mode : Constant
Frame rate : 23.976 (24000/1001) FPS
Color space : YUV
Chroma subsampling : 4:2:0
Bit depth : 8 bits
Scan type : Progressive
Bits/(Pixel*Frame) : 0.739
Stream size : 26.9 GiB (91%)
Default : Yes
Forced : No
Original source medium : Blu-ray

Audio #1
ID : 2
Format : AC-3
Format/Info : Audio Coding 3
Commercial name : Dolby Digital
Codec ID : A_AC3
Duration : 1 h 44 min
Bit rate mode : Constant
Bit rate : 384 kb/s
Channel(s) : 6 channels
Channel layout : L R C LFE Ls Rs
Sampling rate : 48.0 kHz
Frame rate : 31.250 FPS (1536 SPF)
Compression mode : Lossy
Stream size : 288 MiB (1%)
Title : Dub
Language : Russian
Service kind : Complete Main
Default : Yes
Forced : Yes

Audio #2
ID : 3
ID in the original source m : 4352 (0x1100)
Format : DTS XLL
Format/Info : Digital Theater Systems
Commercial name : DTS-HD Master Audio
Codec ID : A_DTS
Duration : 1 h 44 min
Bit rate mode : Variable
Bit rate : 3 357 kb/s
Channel(s) : 6 channels
Channel layout : C L R Ls Rs LFE
Sampling rate : 48.0 kHz
Frame rate : 93.750 FPS (512 SPF)
Bit depth : 24 bits
Compression mode : Lossless
Stream size : 2.46 GiB (8%)
Title : Original
Language : English
Default : No
Forced : No
Original source medium : Blu-ray

Text #1
ID : 4
Format : UTF-8
Codec ID : S_TEXT/UTF8
Codec ID/Info : UTF-8 Plain Text
Duration : 1 h 21 min
Bit rate : 0 b/s
Frame rate : 0.001 FPS
Count of elements : 4
Stream size : 147 Bytes (0%)
Title : Forced
Language : Russian
Default : Yes
Forced : Yes

Text #2
ID : 5
Format : UTF-8
Codec ID : S_TEXT/UTF8
Codec ID/Info : UTF-8 Plain Text
Duration : 1 h 39 min
Bit rate : 91 b/s
Frame rate : 0.242 FPS
Count of elements : 1435
Stream size : 66.7 KiB (0%)
Title : Full
Language : Russian
Default : No
Forced : No

Text #3
ID : 6
Format : UTF-8
Codec ID : S_TEXT/UTF8
Codec ID/Info : UTF-8 Plain Text
Duration : 1 h 43 min
Bit rate : 56 b/s
Frame rate : 0.246 FPS
Count of elements : 1536
Stream size : 42.7 KiB (0%)
Title : Full
Language : English
Default : No
Forced : No

Menu
00:00:00.000 : Chapter 01
00:05:45.928 : Chapter 02
00:10:16.073 : Chapter 03
00:15:10.659 : Chapter 04
00:18:41.745 : Chapter 05
00:20:57.130 : Chapter 06
00:28:42.429 : Chapter 07
00:32:40.583 : Chapter 08
00:36:29.353 : Chapter 09
00:40:48.988 : Chapter 10
00:43:23.976 : Chapter 11
00:50:55.886 : Chapter 12
00:57:51.384 : Chapter 13
01:04:17.270 : Chapter 14
01:09:23.325 : Chapter 15
01:14:58.410 : Chapter 16
01:21:42.480 : Chapter 17
01:27:56.980 : Chapter 18
01:32:29.669 : Chapter 19
01:39:29.338 : Chapter 20

Другие фильмы
У данной публикации пока нет комментариев.
Будь первым, оставь своё мнение в комментариях!
Информация
Посетители, находящиеся в группе Гости, не могут оставлять комментарии к данной публикации.
Самый популярный релиз недели
WEB-DL 1080p 5.57 Gb ...

Кино копилка
...
Какую тему вы используете?

Реклама
Последние комментарии
...

Desol

Сегодня, 00:02

...

dembell56

Вчера, 17:58

...

Dimanchez

1 октября 2022 10:12

...

lomoenot

30 сентября 2022 16:43

...

ooofly

30 сентября 2022 08:40