+10

Старый Генри / Old Henry (2021) UHD BDRemux 2160p от селезень | 4K | HDR | P

Информация о фильме
Название: Старый Генри
Оригинальное название: Old Henry
Год выхода: 2021
Жанр: вестерн, боевик
Режиссер: Потси Пончироли
В ролях: Тим Блейк Нельсон, Скотт Хэйз, Гэвин Льюис, Трэйси Эдкинс, Стивен Дорфф, Ричард Спейт мл., Максимино Арсиньега, Кент Шелтон, Брэд Картер

О фильме: Генри и его сын приютили раненого человека с сумкой, набитой деньгами. Когда по кровавому следу приходит банда вооруженных убийц, им приходится держать оборону. Каждый выстрел Генри убеждает бандитов, что тихий фермер не всю жизнь возделывал землю. Тень тёмного прошлого поглотит всех, кто направит свой револьвер на него.

Страна: США
Студия: Hideout Pictures, Shout! Factory, Shout! Studios
Продолжительность: 01:38:34
Перевод: Профессиональный многоголосый | Кинопоиск HD

Качество: BDRemux 2160p
Видео: 3840x2160 at 23.976 fps, MPEG-H HEVC HDR ~ 85000 kbps avg
Аудио #01: 48 kHz, AC3, 5.1, 448 Kbps | Профессиональный многоголосый | Кинопоиск HD | RUS |Старый Генри / Old Henry (2021) UHD BDRemux 2160p от селезень | 4K | HDR | P
Аудио #02: 48 kHz, E-AC3, 5.1, 448 Kbps | Профессиональный многоголосый | Кинопоиск HD | RUS |
Аудио #03: 48 kHz, DTS-HD MA, 5.1, 3506 Kbps | Оригинал | ENG |
Субтитры: Русские (Full), английские

Старый Генри / Old Henry (2021) UHD BDRemux 2160p от селезень | 4K | HDR | P

Авторизуйтесь для получения доступа к скачиванию

Нет аккаунта? Регистрация открыта и займёт меньше минуты

Вход Регистрация

General
Unique ID : 151673196812173756759202457058941336308 (0x721B31F55C39D0029B2AAD72BF73FAF4)
Complete name : F:\Video\Old.Henry.2021.BDREMUX.2160p.HDR.seleZen.mkv
Format : Matroska
Format version : Version 4
File size : 61.6 GiB
Duration : 1 h 38 min
Overall bit rate mode : Variable
Overall bit rate : 89.4 Mb/s
Movie name : Old Henry 2021 from seleZen
Encoded date : UTC 2022-09-15 01:25:31
Writing application : mkvmerge v59.0.0 ('Shining Star') 64-bit
Writing library : libebml v1.4.2 + libmatroska v1.6.4

Video
ID : 1
Format : HEVC
Format/Info : High Efficiency Video Coding
Format profile : Main [email protected]@High
Codec ID : V_MPEGH/ISO/HEVC
Duration : 1 h 38 min
Bit rate : 85.0 Mb/s
Width : 3 840 pixels
Height : 2 160 pixels
Display aspect ratio : 16:9
Frame rate mode : Constant
Frame rate : 23.976 (24000/1001) FPS
Color space : YUV
Chroma subsampling : 4:2:0 (Type 2)
Bit depth : 10 bits
Bits/(Pixel*Frame) : 0.427
Stream size : 58.5 GiB (95%)
Language : English
Default : Yes
Forced : No
Color range : Limited
Color primaries : BT.2020
Transfer characteristics : PQ
Matrix coefficients : BT.2020 non-constant
Maximum Content Light Level : 574 cd/m2
Maximum Frame-Average Light : 111 cd/m2

Audio #1
ID : 2
Format : AC-3
Format/Info : Audio Coding 3
Commercial name : Dolby Digital
Codec ID : A_AC3
Duration : 1 h 38 min
Bit rate mode : Constant
Bit rate : 448 kb/s
Channel(s) : 6 channels
Channel layout : L R C LFE Ls Rs
Sampling rate : 48.0 kHz
Frame rate : 31.250 FPS (1536 SPF)
Compression mode : Lossy
Stream size : 316 MiB (1%)
Title : MVO [Kinopoisk HD]
Language : Russian
Service kind : Complete Main
Default : Yes
Forced : Yes

Audio #2
ID : 3
Format : E-AC-3
Format/Info : Enhanced AC-3
Commercial name : Dolby Digital Plus
Codec ID : A_EAC3
Duration : 1 h 38 min
Bit rate mode : Constant
Bit rate : 448 kb/s
Channel(s) : 6 channels
Channel layout : L R C LFE Ls Rs
Sampling rate : 48.0 kHz
Frame rate : 31.250 FPS (1536 SPF)
Compression mode : Lossy
Stream size : 316 MiB (1%)
Title : MVO [Kinopoisk HD]
Language : Russian
Service kind : Complete Main
Default : No
Forced : No

Audio #3
ID : 4
Format : DTS XLL
Format/Info : Digital Theater Systems
Commercial name : DTS-HD Master Audio
Codec ID : A_DTS
Duration : 1 h 38 min
Bit rate mode : Variable
Bit rate : 3 506 kb/s
Channel(s) : 6 channels
Channel layout : C L R Ls Rs LFE
Sampling rate : 48.0 kHz
Frame rate : 93.750 FPS (512 SPF)
Bit depth : 24 bits
Compression mode : Lossless
Stream size : 2.41 GiB (4%)
Title : Original
Language : English
Default : No
Forced : No

Text #1
ID : 5
Format : UTF-8
Codec ID : S_TEXT/UTF8
Codec ID/Info : UTF-8 Plain Text
Duration : 1 h 32 min
Bit rate : 61 b/s
Frame rate : 0.142 FPS
Count of elements : 784
Stream size : 41.6 KiB (0%)
Title : Full
Language : Russian
Default : No
Forced : No

Text #2
ID : 6
Format : UTF-8
Codec ID : S_TEXT/UTF8
Codec ID/Info : UTF-8 Plain Text
Duration : 1 h 37 min
Bit rate : 34 b/s
Frame rate : 0.129 FPS
Count of elements : 755
Stream size : 24.4 KiB (0%)
Title : Full
Language : English
Default : No
Forced : No

Text #3
ID : 7
Format : UTF-8
Codec ID : S_TEXT/UTF8
Codec ID/Info : UTF-8 Plain Text
Duration : 1 h 38 min
Bit rate : 42 b/s
Frame rate : 0.175 FPS
Count of elements : 1032
Stream size : 30.3 KiB (0%)
Title : SDH
Language : English
Default : No
Forced : No

Menu
00:00:00.000 : Глава 01
00:05:12.896 : Глава 02
00:12:22.700 : Глава 03
00:22:36.021 : Глава 04
00:28:13.483 : Глава 05
00:38:33.937 : Глава 06
00:48:34.495 : Глава 07
00:56:05.612 : Глава 08
01:04:53.640 : Глава 09
01:12:17.083 : Глава 10
01:18:21.614 : Глава 11
01:31:46.000 : Глава 12

Другие фильмы
У данной публикации пока нет комментариев.
Будь первым, оставь своё мнение в комментариях!
Информация
Посетители, находящиеся в группе Гости, не могут оставлять комментарии к данной публикации.
Самый популярный релиз недели
Донаты
Мы в соц. сетях / RSS

Лучшие релизы месяца
Лучшие SD недели
Лучшие 720p недели
Лучшие 1080p недели
Лучшие 4K недели
Вы недавно смотрели
Реклама
Последние комментарии
...

-=DoMiNo=-

9 апреля 2024 17:43

...

supermehanik

9 апреля 2024 16:22

...

selezinka

5 апреля 2024 16:20

...

Kirk1991

30 марта 2024 15:04

...

Robot

22 марта 2024 09:33

Реклама