+4

Шоу Чашека! / The Cuphead Show! [S01] (2022) WEB-DLRip-AVC от DoMiNo & селезень | Пифагор

Информация о фильме
Название: Шоу Чашека!
Оригинальное название: The Cuphead Show!
Год выхода: 2022
Жанр: мультфильм, короткометражка, фэнтези, боевик, комедия, приключения, семейный
Режиссёр: Клэй Морроу, Адам Палоян
В ролях: Тру Валентино, Фрэнк Тодаро, Люк Миллингтон-Дрэйк, Джо Ханна, Уэйн Брэди, Джим Конрой, Грэй Гриффин

О фильме:
Братья Чашек и Кружек — веселые непоседы, готовые разделить любые невзгоды. Однажды их заносит на карнавал, где дуэту предстоит сразиться с самим дьяволом.

«Шоу Чашека» — адаптация хардкорного платформера, вдохновленного анимацией первой трети прошлого века (преимущественно работами братьев Флейшер). Идея вернуть похождения Чашека и Кружека на малый экран напрашивалась сама собой — достаточно взглянуть на этот по-хорошему старомодный дизайн и выразительных персонажей (лягушки-боксеры! усатая свинья-торговец! злодей с игральной костью вместо головы!).

Страна: США, Канада
Студия: King Features Syndicate, Netflix Animation, Studio MDHR
Продолжительность: ~00:15:00 серия
Перевод: Профессиональный (дублированный) Пифагор по заказу Netflix
Субтитры: Russian (Forced, Full), English (SDH) и другие

Файл
Формат: Matroska
Качество: WEB-DLRip-AVC
Видео: 1024×576 at 24.000 fps, [email protected], ~2300 kbps
Аудио: AC3, 6 ch, ~448 kbps — | Русский | Шоу Чашека! / The Cuphead Show! [S01] (2022) WEB-DLRip-AVC от DoMiNo & селезень | Пифагор | Дубляж, Пифагор по заказу Netflix |
Формат субтитров: softsub (SRT)

Шоу Чашека! / The Cuphead Show! [S01] (2022) WEB-DLRip-AVC от DoMiNo & селезень | Пифагор

Авторизуйтесь для получения доступа к скачиванию

Нет аккаунта? Регистрация открыта и займёт меньше минуты

Вход Регистрация

x264 [info]: frame I:243 Avg QP:17.24 size: 66427
x264 [info]: frame P:4090 Avg QP:19.75 size: 24818
x264 [info]: frame B:16436 Avg QP:18.58 size: 8083

General
Unique ID : 332216646083944308804308619823302653358 (0xF9EE99428C5D74C0E02004B0112935AE)
Complete name : D:The.Cuphead.Show.S01E01.Carn-Evil.WEB-DLRip.x264.seleZen.mkv
Format : Matroska
Format version : Version 4
File size : 302 MiB
Duration : 15 min 15 s
Overall bit rate : 2 771 kb/s
Movie name : seleZen
Encoded date : UTC 22.08.2022 11:35:16
Writing application : mkvmerge v70.0.0 ('Caught A Lite Sneeze') 64-bit
Writing library : libebml v1.4.2 + libmatroska v1.6.4
Cover : Yes
Attachments : cover.jpg / small_cover.jpg

Video
ID : 1
Format : AVC
Format/Info : Advanced Video Codec
Format profile : [email protected]
Format settings : CABAC / 12 Ref Frames
Format settings, CABAC : Yes
Format settings, Reference : 12 frames
Codec ID : V_MPEG4/ISO/AVC
Duration : 15 min 15 s
Bit rate : 2 319 kb/s
Width : 1 024 pixels
Height : 576 pixels
Display aspect ratio : 16:9
Frame rate mode : Constant
Frame rate : 24.000 FPS
Color space : YUV
Chroma subsampling : 4:2:0
Bit depth : 8 bits
Scan type : Progressive
Bits/(Pixel*Frame) : 0.164
Stream size : 253 MiB (84%)
Title : -=DoMiNo=-
Writing library : x264 core 164 by -=DoMiNo=-
Encoding settings : cabac=1 / ref=12 / deblock=1:-2:-1 / analyse=0×3:0×133 / me=umh / subme=10 / psy=1 / psy_rd=1.05:0.20 / mixed_ref=1 / me_range=32 / chroma_me=1 / trellis=2 / 8×8dct=1 / cqm=0 / deadzone=21,11 / fast_pskip=0 / chroma_qp_offset=-3 / threads=17 / lookahead_threads=2 / sliced_threads=0 / nr=0 / decimate=0 / interlaced=0 / bluray_compat=0 / constrained_intra=0 / bframes=9 / b_pyramid=2 / b_adapt=2 / b_bias=0 / direct=1 / weightb=1 / open_gop=0 / weightp=2 / keyint=250 / keyint_min=24 / scenecut=40 / intra_refresh=0 / rc_lookahead=60 / rc=crf / mbtree=0 / crf=20.5 / qcomp=0.65 / qpmin=0 / qpmax=69 / qpstep=4 / vbv_maxrate=50000 / vbv_bufsize=62500 / crf_max=0.0 / nal_hrd=none / filler=0 / ip_ratio=1.40 / pb_ratio=1.30 / aq=1:1.20
Language : English
Default : Yes
Forced : No

Audio
ID : 2
Format : AC-3
Format/Info : Audio Coding 3
Commercial name : Dolby Digital
Codec ID : A_AC3
Duration : 15 min 15 s
Bit rate mode : Constant
Bit rate : 448 kb/s
Channel (s) : 6 channels
Channel layout : L R C LFE Ls Rs
Sampling rate : 48.0 kHz
Frame rate : 31.250 FPS (1536 SPF)
Compression mode : Lossy
Stream size : 48.9 MiB (16%)
Title : DUB
Language : Russian
Service kind : Complete Main
Default : Yes
Forced : Yes

Text #1
ID : 3
Format : UTF-8
Codec ID : S_TEXT/UTF8
Codec ID/Info : UTF-8 Plain Text
Duration : 11 min 42 s
Bit rate : 6 b/s
Count of elements : 16
Stream size : 534 Bytes (0%)
Title : Forced
Language : Russian
Default : Yes
Forced : No

Text #2
ID : 4
Format : UTF-8
Codec ID : S_TEXT/UTF8
Codec ID/Info : UTF-8 Plain Text
Duration : 11 min 42 s
Bit rate : 65 b/s
Count of elements : 131
Stream size : 5.62 KiB (0%)
Language : Russian
Default : No
Forced : No

Text #3
ID : 5
Format : UTF-8
Codec ID : S_TEXT/UTF8
Codec ID/Info : UTF-8 Plain Text
Duration : 11 min 16 s
Bit rate : 63 b/s
Count of elements : 212
Stream size : 5.27 KiB (0%)
Title : SDH
Language : English
Default : No
Forced : No

Text #4
ID : 6
Format : UTF-8
Codec ID : S_TEXT/UTF8
Codec ID/Info : UTF-8 Plain Text
Duration : 11 min 56 s
Bit rate : 67 b/s
Count of elements : 126
Stream size : 5.87 KiB (0%)
Language : Hebrew
Default : No
Forced : No

Text #5
ID : 7
Format : UTF-8
Codec ID : S_TEXT/UTF8
Codec ID/Info : UTF-8 Plain Text
Duration : 11 min 56 s
Bit rate : 45 b/s
Count of elements : 128
Stream size : 3.98 KiB (0%)
Language : Romanian
Default : No
Forced : No

Text #6
ID : 8
Format : UTF-8
Codec ID : S_TEXT/UTF8
Codec ID/Info : UTF-8 Plain Text
Duration : 11 min 56 s
Bit rate : 62 b/s
Count of elements : 132
Stream size : 5.50 KiB (0%)
Language : Ukrainian
Default : No
Forced : No

Text #7
ID : 9
Format : UTF-8
Codec ID : S_TEXT/UTF8
Codec ID/Info : UTF-8 Plain Text
Duration : 11 min 56 s
Bit rate : 5 b/s
Count of elements : 15
Stream size : 449 Bytes (0%)
Title : Forced
Language : Ukrainian
Default : No
Forced : No

Другие фильмы
Комментарии:

...
Max_Kek 22 августа 2022 16:50
0

4к раздача будет от Вас?)

Информация
Посетители, находящиеся в группе Гости, не могут оставлять комментарии к данной публикации.
Самый популярный релиз недели
Донаты
Мы в соц. сетях / RSS

Лучшие релизы месяца
Лучшие SD недели
Лучшие 720p недели
Лучшие 1080p недели
Лучшие 4K недели
Вы недавно смотрели
Реклама
Последние комментарии
...

rmzshka

12 июля 2024 11:30

...

Rustik99

12 июля 2024 10:11

...

-=DoMiNo=-

11 июля 2024 23:42

...

rmzshka

11 июля 2024 11:28

...

-=DoMiNo=-

10 июля 2024 15:08

Реклама