+7

Добыча / Prey (2022) WEB-DLRip-AVC от DoMiNo & селезень | P, A

Информация о фильме
Название: Добыча
Оригинальное название: Prey
Год выхода: 2022
Жанр: Ужасы, фантастика, боевик
Режиссер: Дэн Трахтенберг
В ролях: Эмбер Мидфандер, Дэйн Дильегро, Харлан Блейн Китвейхат, Дакота Биверс, Джеронимо Вела, Стефани Матиас, Сторми Кипп, Майк Патерсон, Джулиан Шэмп, Нельсон Картер Лейс и другие.

О фильме:
Женщина-воин Нару пытается защитить свое племя от одного из первых высокоразвитых Хищников, высадившихся на Земле.

Страна: США
Студия: 20th Century Studios, Davis Entertainment
Продолжительность: 01:39:30
Перевод 1: Профессиональный (многоголосый, закадровый) | Jaskier | Присутствует ненормативная лексика !
Перевод 2: Авторский (одноголосый закадровый) | М. Яроцкий
Субтитры: Русские (FOCS), английские

Файл
Формат: Matroska
Качество: WEB-DLRip-AVC
Видео: 1024×428 at 24.000 fps, [email protected], ~1640 kbps
Аудио 1: AC3, 6 ch, ~448 kbps — | Русский | Добыча / Prey (2022) WEB-DLRip-AVC от DoMiNo & селезень | P, A | Jaskier
Аудио 2: AC3, 6 ch, ~448 kbps — | Русский | | М. Яроцкий
Аудио 3: AC3, 6 ch, ~448 kbps — | Английский | | Original
Формат субтитров: softsub (SRT)

Добыча / Prey (2022) WEB-DLRip-AVC от DoMiNo & селезень | P, A

Авторизуйтесь для получения доступа к скачиванию

Нет аккаунта? Регистрация открыта и займёт меньше минуты

Вход Регистрация

x264 [info]: frame I:1085 Avg QP:17.23 size: 51073
x264 [info]: frame P:34900 Avg QP:18.34 size: 17192
x264 [info]: frame B:107293 Avg QP:20.28 size: 5296

General
Unique ID : 55543954860072856666858715458191379242 (0x29C960682AE4C8BE2A997333E1CA4B2A)
Complete name : D:Добыча.2022.1080pPrey.2022.WEB-DLRip.x264.seleZen.mkv
Format : Matroska
Format version : Version 4
File size : 2.08 GiB
Duration : 1 h 39 min
Overall bit rate : 2 986 kb/s
Movie name : Prey.2022.WEB-DLRip.x264.seleZen
Encoded date : UTC 2022-08-12 14:46:27
Writing application : mkvmerge v63.0.0 ('Everything') 64-bit
Writing library : libebml v1.4.2 + libmatroska v1.6.4
Cover : Yes
Attachments : cover.jpg / small_cover.jpg

Video
ID : 1
Format : AVC
Format/Info : Advanced Video Codec
Format profile : [email protected]
Format settings : CABAC / 12 Ref Frames
Format settings, CABAC : Yes
Format settings, Reference : 12 frames
Codec ID : V_MPEG4/ISO/AVC
Duration : 1 h 39 min
Bit rate : 1 640 kb/s
Width : 1 024 pixels
Height : 428 pixels
Display aspect ratio : 2.40:1
Frame rate mode : Constant
Frame rate : 24.000 FPS
Color space : YUV
Chroma subsampling : 4:2:0
Bit depth : 8 bits
Scan type : Progressive
Bits/(Pixel*Frame) : 0.156
Stream size : 1.14 GiB (55%)
Title : -=DoMiNo=-
Writing library : x264 core 164 by -=DoMiNo=-
Encoding settings : cabac=1 / ref=12 / deblock=1:-3:-3 / analyse=0x3:0x133 / me=umh / subme=10 / psy=1 / psy_rd=1.00:0.20 / mixed_ref=1 / me_range=32 / chroma_me=1 / trellis=2 / 8x8dct=1 / cqm=0 / deadzone=21,11 / fast_pskip=0 / chroma_qp_offset=-3 / threads=17 / lookahead_threads=3 / sliced_threads=0 / nr=0 / decimate=0 / interlaced=0 / bluray_compat=0 / constrained_intra=0 / bframes=10 / b_pyramid=2 / b_adapt=2 / b_bias=0 / direct=1 / weightb=1 / open_gop=0 / weightp=2 / keyint=250 / keyint_min=24 / scenecut=40 / intra_refresh=0 / rc_lookahead=60 / rc=crf / mbtree=0 / crf=20.0 / qcomp=0.65 / qpmin=0 / qpmax=69 / qpstep=4 / vbv_maxrate=50000 / vbv_bufsize=62500 / crf_max=0.0 / nal_hrd=none / filler=0 / ip_ratio=1.30 / pb_ratio=1.25 / aq=3:1.00
Language : English
Default : Yes
Forced : No

Audio #1
ID : 2
Format : AC-3
Format/Info : Audio Coding 3
Commercial name : Dolby Digital
Codec ID : A_AC3
Duration : 1 h 39 min
Bit rate mode : Constant
Bit rate : 448 kb/s
Channel(s) : 6 channels
Channel layout : L R C LFE Ls Rs
Sampling rate : 48.0 kHz
Frame rate : 31.250 FPS (1536 SPF)
Compression mode : Lossy
Stream size : 319 MiB (15%)
Title : MVO [Jaskier]
Language : Russian
Service kind : Complete Main
Default : Yes
Forced : Yes

Audio #2
ID : 3
Format : AC-3
Format/Info : Audio Coding 3
Commercial name : Dolby Digital
Codec ID : A_AC3
Duration : 1 h 39 min
Bit rate mode : Constant
Bit rate : 448 kb/s
Channel(s) : 6 channels
Channel layout : L R C LFE Ls Rs
Sampling rate : 48.0 kHz
Frame rate : 31.250 FPS (1536 SPF)
Compression mode : Lossy
Stream size : 319 MiB (15%)
Title : AVO [М. Яроцкий]
Language : Russian
Service kind : Complete Main
Default : No
Forced : No

Audio #3
ID : 4
Format : AC-3
Format/Info : Audio Coding 3
Commercial name : Dolby Digital
Codec ID : A_AC3
Duration : 1 h 39 min
Bit rate mode : Constant
Bit rate : 448 kb/s
Channel(s) : 6 channels
Channel layout : L R C LFE Ls Rs
Sampling rate : 48.0 kHz
Frame rate : 31.250 FPS (1536 SPF)
Compression mode : Lossy
Stream size : 319 MiB (15%)
Title : Original
Language : English
Service kind : Complete Main
Default : No
Forced : No

Text #1
ID : 5
Format : UTF-8
Codec ID : S_TEXT/UTF8
Codec ID/Info : UTF-8 Plain Text
Duration : 1 h 28 min
Bit rate : 23 b/s
Count of elements : 347
Stream size : 15.2 KiB (0%)
Title : FULL [FOCS]
Language : Russian
Default : No
Forced : No

Text #2
ID : 6
Format : UTF-8
Codec ID : S_TEXT/UTF8
Codec ID/Info : UTF-8 Plain Text
Duration : 1 h 29 min
Bit rate : 27 b/s
Count of elements : 849
Stream size : 18.4 KiB (0%)
Title : SDH
Language : English
Default : No
Forced : No

Другие фильмы
Комментарии:

...
TheFoldGame 25 августа 2022 00:39
0

Добавьте дубляж от Progovory Band!!!!!!

 

...
tduality 13 августа 2022 05:50
0

фильм великолепен. Ничем не хуже оригинала.

Информация
Посетители, находящиеся в группе Гости, не могут оставлять комментарии к данной публикации.
Самый популярный релиз недели
WEB-DL 1080p 5.57 Gb ...

Кино копилка
...
Какую тему вы используете?

Реклама
Последние комментарии
...

Desol

Сегодня, 00:02

...

dembell56

Вчера, 17:58

...

Dimanchez

1 октября 2022 10:12

...

lomoenot

30 сентября 2022 16:43

...

ooofly

30 сентября 2022 08:40