+16

Преступления будущего / Crimes of the Future (2022) HDRip-AVC от DoMiNo & селезень | D, P, А

Информация о фильме
Название: Преступления будущего
Оригинальное название: Crimes of the Future
Год выхода: 2022
Жанр: Ужасы, фантастика, драма
Режиссер: Дэвид Кроненберг
В ролях: Вигго Мортенсен, Леа Сейду, Кристен Стюарт, Дон МакКеллар, Таная Битти, Джейсон Биттер, Велкетт Бунге, Дениз Капецца, Эфи Кантза, Лихи Корновски

О фильме:
Недалекое будущее. Человечество учится приспосабливаться к новому миру: у людей появился синдром ускоренной эволюции, из-за которого с телом начинают происходить удивительные изменения. Одни принимают новую реальность, а другие пытаются бороться любыми возможными способами.

Страна: Канада, Франция, Греция, Великобритания
Студия: Argonauts, Bell MediaCanadian Broadcasting Corporation (CBC)
Продолжительность: 01:47:34
Перевод 1: Дублированный | Кипарис | КиноПоиск HD
Перевод 2: Профессиональный (многоголосый закадровый) | Jaskier
Перевод 3: Авторский (одноголосый закадровый) | М. Яроцкий
Субтитры: Русские (Forced, 2 x Full), английские

Файл
Формат: Matroska
Качество: HDRip-AVC
Видео: 1024x554 at 23.976 fps, [email protected], ~1278 kbps
Аудио 1: AC3, 6 ch, ~448 kbps - | Русский | Преступления будущего / Crimes of the Future (2022) HDRip-AVC от DoMiNo & селезень | D, P, А | Кипарис
Аудио 2: AC3, 6 ch, ~448 kbps - | Русский | | Jaskier
Аудио 3: AC3, 6 ch, ~448 kbps - | Русский | | М. Яроцкий
Аудио 4: AC3, 6 ch, ~448 kbps - | Английский | | Original
Формат субтитров: softsub (SRT)

Преступления будущего / Crimes of the Future (2022) HDRip-AVC от DoMiNo & селезень | D, P, А

Авторизуйтесь для получения доступа к скачиванию

Нет аккаунта? Регистрация открыта и займёт меньше минуты

Вход Регистрация

x264 [info]: frame I:934 Avg QP:12.85 size: 57251
x264 [info]: frame P:28166 Avg QP:15.54 size: 16702
x264 [info]: frame B:125657 Avg QP:17.13 size: 4038

General
Unique ID : 297208402229486970606266662049772511014 (0xDF9841938D7DAB1E2F5F29E026BC9F26)
Complete name : O:Crimes.of.the.Future.2022.D.P.A.HDRip.x264.seleZen.mkv
Format : Matroska
Format version : Version 4
File size : 2.31 GiB
Duration : 1 h 47 min
Overall bit rate : 3 072 kb/s
Frame rate : 23.976 FPS
Movie name : Crimes.of.the.Future.2022.D.P.A.HDRip.x264.seleZen
Encoded date : 2023-11-18 12:35:57 UTC
Writing application : mkvmerge v80.0 ('Roundabout') 64-bit
Writing library : libebml v1.4.4 + libmatroska v1.7.1
Cover : Yes
Attachments : cover.jpg / small_cover.jpg

Video
ID : 1
Format : AVC
Format/Info : Advanced Video Codec
Format profile : [email protected]
Format settings : CABAC / 12 Ref Frames
Format settings, CABAC : Yes
Format settings, Reference : 12 frames
Codec ID : V_MPEG4/ISO/AVC
Duration : 1 h 47 min
Bit rate : 1 278 kb/s
Width : 1 024 pixels
Height : 554 pixels
Display aspect ratio : 1.85:1
Frame rate mode : Constant
Frame rate : 23.976 (24000/1001) FPS
Color space : YUV
Chroma subsampling : 4:2:0
Bit depth : 8 bits
Scan type : Progressive
Bits/(Pixel*Frame) : 0.094
Stream size : 984 MiB (42%)
Title : -=DoMiNo=-
Writing library : x264 core 164 by -=DoMiNo=-
Encoding settings : cabac=1 / ref=12 / deblock=1:-3:-3 / analyse=0x3:0x133 / me=umh / subme=11 / psy=1 / psy_rd=1.02:0.03 / mixed_ref=1 / me_range=32 / chroma_me=1 / trellis=2 / 8x8dct=1 / cqm=0 / deadzone=21,11 / fast_pskip=0 / chroma_qp_offset=-3 / threads=17 / lookahead_threads=4 / sliced_threads=0 / nr=0 / decimate=0 / interlaced=0 / bluray_compat=0 / constrained_intra=0 / bframes=10 / b_pyramid=2 / b_adapt=2 / b_bias=0 / direct=1 / weightb=1 / open_gop=0 / weightp=2 / keyint=250 / keyint_min=23 / scenecut=40 / intra_refresh=0 / rc_lookahead=60 / rc=crf / mbtree=0 / crf=18.0 / qcomp=0.60 / qpmin=0 / qpmax=69 / qpstep=4 / vbv_maxrate=50000 / vbv_bufsize=62500 / crf_max=0.0 / nal_hrd=none / filler=0 / ip_ratio=1.30 / pb_ratio=1.20 / aq=3:0.80
Language : English
Default : Yes
Forced : No

Audio #1
ID : 2
Format : AC-3
Format/Info : Audio Coding 3
Commercial name : Dolby Digital
Codec ID : A_AC3
Duration : 1 h 47 min
Bit rate mode : Constant
Bit rate : 448 kb/s
Channel(s) : 6 channels
Channel layout : L R C LFE Ls Rs
Sampling rate : 48.0 kHz
Frame rate : 31.250 FPS (1536 SPF)
Compression mode : Lossy
Stream size : 345 MiB (15%)
Title : Дублированный - Кипарис
Language : Russian
Service kind : Complete Main
Default : Yes
Forced : No

Audio #2
ID : 3
Format : AC-3
Format/Info : Audio Coding 3
Commercial name : Dolby Digital
Codec ID : A_AC3
Duration : 1 h 47 min
Bit rate mode : Constant
Bit rate : 448 kb/s
Channel(s) : 6 channels
Channel layout : L R C LFE Ls Rs
Sampling rate : 48.0 kHz
Frame rate : 31.250 FPS (1536 SPF)
Compression mode : Lossy
Stream size : 345 MiB (15%)
Title : MVO - Jaskier
Language : Russian
Service kind : Complete Main
Default : No
Forced : No

Audio #3
ID : 4
Format : AC-3
Format/Info : Audio Coding 3
Commercial name : Dolby Digital
Codec ID : A_AC3
Duration : 1 h 47 min
Bit rate mode : Constant
Bit rate : 448 kb/s
Channel(s) : 6 channels
Channel layout : L R C LFE Ls Rs
Sampling rate : 48.0 kHz
Frame rate : 31.250 FPS (1536 SPF)
Compression mode : Lossy
Stream size : 345 MiB (15%)
Title : М. Яроцкий
Language : Russian
Service kind : Complete Main
Default : No
Forced : No

Audio #4
ID : 5
Format : AC-3
Format/Info : Audio Coding 3
Commercial name : Dolby Digital
Codec ID : A_AC3
Duration : 1 h 47 min
Bit rate mode : Constant
Bit rate : 448 kb/s
Channel(s) : 6 channels
Channel layout : L R C LFE Ls Rs
Sampling rate : 48.0 kHz
Frame rate : 31.250 FPS (1536 SPF)
Compression mode : Lossy
Stream size : 345 MiB (15%)
Title : Original
Language : English
Service kind : Complete Main
Default : No
Forced : No

Text #1
ID : 6
Format : UTF-8
Codec ID : S_TEXT/UTF8
Codec ID/Info : UTF-8 Plain Text
Duration : 1 h 13 min
Bit rate : 0 b/s
Frame rate : 0.001 FPS
Count of elements : 5
Stream size : 272 Bytes (0%)
Title : Forced
Language : Russian
Default : No
Forced : No

Text #2
ID : 7
Format : UTF-8
Codec ID : S_TEXT/UTF8
Codec ID/Info : UTF-8 Plain Text
Duration : 1 h 38 min
Bit rate : 75 b/s
Frame rate : 0.227 FPS
Count of elements : 1341
Stream size : 54.0 KiB (0%)
Title : Full
Language : Russian
Default : No
Forced : No

Text #3
ID : 8
Format : UTF-8
Codec ID : S_TEXT/UTF8
Codec ID/Info : UTF-8 Plain Text
Duration : 1 h 39 min
Bit rate : 81 b/s
Frame rate : 0.223 FPS
Count of elements : 1336
Stream size : 59.6 KiB (0%)
Title : Full [FOCS]
Language : Russian
Default : No
Forced : No

Text #4
ID : 9
Format : UTF-8
Codec ID : S_TEXT/UTF8
Codec ID/Info : UTF-8 Plain Text
Duration : 1 h 37 min
Bit rate : 49 b/s
Frame rate : 0.243 FPS
Count of elements : 1420
Stream size : 35.1 KiB (0%)
Title : Full
Language : English (US)
Default : No
Forced : No

Text #5
ID : 10
Format : UTF-8
Codec ID : S_TEXT/UTF8
Codec ID/Info : UTF-8 Plain Text
Duration : 1 h 41 min
Bit rate : 56 b/s
Frame rate : 0.300 FPS
Count of elements : 1824
Stream size : 42.0 KiB (0%)
Title : SDH
Language : English (US)
Default : No
Forced : No

Menu
00:00:00.000 : en:Chapter 01
00:12:58.778 : en:Chapter 02
00:27:13.340 : en:Chapter 03
00:44:55.484 : en:Chapter 04
00:59:43.079 : en:Chapter 05
01:15:11.966 : en:Chapter 06
01:26:14.836 : en:Chapter 07
01:41:09.438 : en:Chapter 08

Другие фильмы
У данной публикации пока нет комментариев.
Будь первым, оставь своё мнение в комментариях!
Информация
Посетители, находящиеся в группе Гости, не могут оставлять комментарии к данной публикации.
Самый популярный релиз недели
Донаты
Мы в соц. сетях / RSS

Лучшие релизы месяца
Лучшие SD недели
Лучшие 720p недели
Лучшие 1080p недели
Лучшие 4K недели
Вы недавно смотрели
Реклама
Последние комментарии
...

Bonzo

14 июня 2024 14:52

...

rmzshka

13 июня 2024 17:48

...

rmzshka

13 июня 2024 12:24

...

LisNick

13 июня 2024 08:45

...

SkySpirit

8 июня 2024 19:54

Реклама