+4

Геймер / Gamer (2009) UHD BDRemux 2160p от селезень | 4K | SDR | D, P, P2, A

Информация о фильме
Название: Геймер
Оригинальное название: Gamer
Год выхода: 2009
Жанр: фантастика, боевик, триллер
Режиссер: Марк Невелдайн, Брайан Тейлор
В ролях: Джерард Батлер, Эмбер Валлетта, Майкл С. Холл, Кира Седжвик, Логан Лерман, Элисон Ломан, Терри Крюс, Рэмси Мур, Лудакрис, Аарон Ю

О фильме: В недалеком утопическом будущем технологический гений Кен Касл сумел соединить видеоигру и реалити-шоу. Благодаря нанотехнологиям он смоделировал ультрафункциональную игру «Убийцы», которая стала средой обитания местных преступников. Участие в игре должен принять Джон Тилман, заключенный, приговоренный к пожизненному сроку за преступление, которое не совершал. За это мужчине пообещали свободу. Управлять действиями Джона будет богатый молодой игрок, а миллионы людей – следить за развитием событий в режиме онлайн.

Страна: США
Студия: Lakeshore Entertainment, Lionsgate
Продолжительность: 01:34:44
Перевод(ы):
#1: Дублированный | Blu-Ray
#2: Профессиональный многоголосый | Киномания
#3: Авторский | Ю.Немахов
#4: Профессиональный двухголосый


Качество: BDRemux 2160p
Видео: 3840x2160 at 23.976 fps, MPEG-H HEVC SDR ~ 59000 kbps avg
Аудио #01: 48 kHz, AC3, 5.1, 640 Kbps | Дублированный | Blu-Ray | RUS |Геймер / Gamer (2009) UHD BDRemux 2160p от селезень | 4K | SDR | D, P, P2, A
Аудио #02: 48 kHz, AC3, 5.1, 448 Kbps | Профессиональный многоголосый | Киномания | RUS |
Аудио #03: 48 kHz, AC3, 5.1, 448 Kbps | Авторский | Ю.Немахов | RUS |
Аудио #04: 48 kHz, AC3, 5.1, 384 Kbps | Профессиональный двухголосый | RUS |
Аудио #05: 48 kHz, AC3, 5.1, 640 Kbps | Профессиональный многоголосый | 2+2 | UKR |
Аудио #06: 48 kHz, DTS-HD MA, 5.1, 3892 Kbps | Оригинал | ENG |
Субтитры: Русские (Full), украинские (Full), английские

Геймер / Gamer (2009) UHD BDRemux 2160p от селезень | 4K | SDR | D, P, P2, A

Авторизуйтесь для получения доступа к скачиванию

Нет аккаунта? Регистрация открыта и займёт меньше минуты

Вход Регистрация

General
Unique ID : 73613341610767895793675225958387259880 (0x376169F4CA6644DC13452C54C5EF99E8)
Complete name : D:\Gamer.2009.BDREMUX.2160p.HDR.seleZen.mkv
Format : Matroska
Format version : Version 4
File size : 43.3 GiB
Duration : 1 h 34 min
Overall bit rate mode : Variable
Overall bit rate : 65.4 Mb/s
Movie name : Gamer 2009 from seleZen
Encoded date : UTC 2022-08-02 17:33:21
Writing application : mkvmerge v59.0.0 ('Shining Star') 64-bit
Writing library : libebml v1.4.2 + libmatroska v1.6.4

Video
ID : 1
ID in the original source m : 4113 (0x1011)
Format : HEVC
Format/Info : High Efficiency Video Coding
Format profile : Main [email protected]@High
Codec ID : V_MPEGH/ISO/HEVC
Duration : 1 h 34 min
Bit rate : 59.0 Mb/s
Width : 3 840 pixels
Height : 2 160 pixels
Display aspect ratio : 16:9
Frame rate mode : Constant
Frame rate : 23.976 (24000/1001) FPS
Color space : YUV
Chroma subsampling : 4:2:0 (Type 2)
Bit depth : 10 bits
Bits/(Pixel*Frame) : 0.297
Stream size : 39.0 GiB (90%)
Language : English
Default : Yes
Forced : No
Color range : Limited
Color primaries : BT.2020
Transfer characteristics : BT.2020 (10-bit)
Matrix coefficients : BT.2020 non-constant
Original source medium : Blu-ray

Audio #1
ID : 2
Format : AC-3
Format/Info : Audio Coding 3
Commercial name : Dolby Digital
Codec ID : A_AC3
Duration : 1 h 34 min
Bit rate mode : Constant
Bit rate : 640 kb/s
Channel(s) : 6 channels
Channel layout : L R C LFE Ls Rs
Sampling rate : 48.0 kHz
Frame rate : 31.250 FPS (1536 SPF)
Compression mode : Lossy
Stream size : 434 MiB (1%)
Title : Dub
Language : Russian
Service kind : Complete Main
Default : Yes
Forced : Yes

Audio #2
ID : 3
Format : AC-3
Format/Info : Audio Coding 3
Commercial name : Dolby Digital
Format settings : Dolby Surround EX
Codec ID : A_AC3
Duration : 1 h 34 min
Bit rate mode : Constant
Bit rate : 448 kb/s
Channel(s) : 6 channels
Channel layout : L R C LFE Ls Rs
Sampling rate : 48.0 kHz
Frame rate : 31.250 FPS (1536 SPF)
Compression mode : Lossy
Stream size : 304 MiB (1%)
Title : MVO [Киномания]
Language : Russian
Service kind : Complete Main
Default : No
Forced : No

Audio #3
ID : 4
Format : AC-3
Format/Info : Audio Coding 3
Commercial name : Dolby Digital
Format settings : Dolby Surround EX
Codec ID : A_AC3
Duration : 1 h 34 min
Bit rate mode : Constant
Bit rate : 448 kb/s
Channel(s) : 6 channels
Channel layout : L R C LFE Ls Rs
Sampling rate : 48.0 kHz
Frame rate : 31.250 FPS (1536 SPF)
Compression mode : Lossy
Stream size : 304 MiB (1%)
Title : AVO [Ю.Немахов]
Language : Russian
Service kind : Complete Main
Default : No
Forced : No

Audio #4
ID : 5
Format : AC-3
Format/Info : Audio Coding 3
Commercial name : Dolby Digital
Codec ID : A_AC3
Duration : 1 h 34 min
Bit rate mode : Constant
Bit rate : 384 kb/s
Channel(s) : 6 channels
Channel layout : L R C LFE Ls Rs
Sampling rate : 48.0 kHz
Frame rate : 31.250 FPS (1536 SPF)
Compression mode : Lossy
Stream size : 260 MiB (1%)
Title : DVO
Language : Russian
Service kind : Complete Main
Default : No
Forced : No

Audio #5
ID : 6
Format : AC-3
Format/Info : Audio Coding 3
Commercial name : Dolby Digital
Codec ID : A_AC3
Duration : 1 h 34 min
Bit rate mode : Constant
Bit rate : 640 kb/s
Channel(s) : 6 channels
Channel layout : L R C LFE Ls Rs
Sampling rate : 48.0 kHz
Frame rate : 31.250 FPS (1536 SPF)
Compression mode : Lossy
Stream size : 434 MiB (1%)
Title : MVO [2+2]
Language : Ukrainian
Service kind : Complete Main
Default : No
Forced : No

Audio #6
ID : 7
ID in the original source m : 4352 (0x1100)
Format : DTS XLL
Format/Info : Digital Theater Systems
Commercial name : DTS-HD Master Audio
Codec ID : A_DTS
Duration : 1 h 34 min
Bit rate mode : Variable
Bit rate : 3 892 kb/s
Channel(s) : 6 channels
Channel layout : C L R Ls Rs LFE
Sampling rate : 48.0 kHz
Frame rate : 93.750 FPS (512 SPF)
Bit depth : 24 bits
Compression mode : Lossless
Stream size : 2.58 GiB (6%)
Title : Original
Language : English
Default : No
Forced : No
Original source medium : Blu-ray

Text #1
ID : 8
Format : UTF-8
Codec ID : S_TEXT/UTF8
Codec ID/Info : UTF-8 Plain Text
Duration : 1 h 25 min
Bit rate : 78 b/s
Frame rate : 0.166 FPS
Count of elements : 857
Stream size : 49.7 KiB (0%)
Title : Full
Language : Russian
Default : No
Forced : No

Text #2
ID : 9
Format : UTF-8
Codec ID : S_TEXT/UTF8
Codec ID/Info : UTF-8 Plain Text
Duration : 1 h 24 min
Bit rate : 71 b/s
Frame rate : 0.154 FPS
Count of elements : 783
Stream size : 44.6 KiB (0%)
Title : Full
Language : Ukrainian
Default : No
Forced : No

Text #3
ID : 10
Format : UTF-8
Codec ID : S_TEXT/UTF8
Codec ID/Info : UTF-8 Plain Text
Duration : 1 h 23 min
Bit rate : 48 b/s
Frame rate : 0.166 FPS
Count of elements : 838
Stream size : 29.7 KiB (0%)
Title : Full
Language : English
Default : No
Forced : No

Menu
00:00:00.000 : Chapter 01
00:10:07.231 : Chapter 02
00:20:02.326 : Chapter 03
00:30:01.841 : Chapter 04
00:40:02.691 : Chapter 05
00:50:07.045 : Chapter 06
01:00:04.058 : Chapter 07
01:10:04.283 : Chapter 08
01:20:05.467 : Chapter 09
01:25:06.351 : Chapter 10

Другие фильмы
Комментарии:

...
alexei5881 13 августа 2022 19:55
0

Laska020489, я тоже самое заметил и сразу снес

 

...
Laska020489 8 августа 2022 17:03
0

качество ужасное - такое чувство что HDR показывается в SDR/ картинка какая то не сочноя и соотношение в фильм почемуто 16:9 - щлак кароче.... Я в первые нарвался на такое...... - за зря качал

Информация
Посетители, находящиеся в группе Гости, не могут оставлять комментарии к данной публикации.
Самый популярный релиз недели
WEB-DL 1080p 5.57 Gb ...

Кино копилка
...
Какую тему вы используете?

Реклама
Последние комментарии
...

Desol

Сегодня, 00:02

...

dembell56

Вчера, 17:58

...

Dimanchez

1 октября 2022 10:12

...

lomoenot

30 сентября 2022 16:43

...

ooofly

30 сентября 2022 08:40