+9

Бэтмен / Batman (1989) UHD BDRemux 2160p от селезень | 4K | HDR | Лицензия

Информация о фильме
Название: Бэтмен
Оригинальное название: Batman
Год выхода: 1989
Жанр: Фантастика, боевик, триллер, криминал, супергерой
Режиссер: Тим Бёртон
В ролях: Майкл Китон, Джек Николсон, Ким Бейсингер, Роберт Вул, Пэт Хингл, Билли Ди Уильямс, Майкл Гоф, Джек Пэланс, Джерри Холл, Трейси Уолтер

О фильме: В раннем детстве юный наследник Брюс Уэйн стал свидетелем убийства своих родителей и после этого стал ненавидеть преступность. В Готэме все чаще случались насилия, ограбления и убийства. В трудное для города время появляется герой, способный укротить любого преступника и заставить его бежать в страхе. Таинственный мститель, герой по прозвищу «Бэтмен», встал на защиту слабых и начал свою борьбу с преступниками. Раскрыть таинственность героя, узнать кто скрывается за маской героя хотят журналистка Вики Вейл и репортер Нокс. Тем временем один из преступников уходя от полицейской погони упал в чан с химикатами и превратился в Джокера, который стал угрозой для города. Только Бэтмен может ему помешать…

Страна: США, Великобритания
Студия: Guber-Peters Company, PolyGram Filmed Entertainment, Warner Bros. Pictures
Продолжительность: 02:06:19
Перевод: Дублированный | Лицензия

Качество: BDRemux 2160p
Видео: MPEG-H HEVC HDR Video, 3840x2160, 70000 Kbit/s, 23.976 fps
Звук:
Аудио #01: 48 kHz, AC3, 5.1, 384 Kbps | iTunes | RUS
Аудио #02: 48 kHz, TrueHD, 7.1, 3772 Kbps | Оригинал | ENG
Аудио #03: 48 kHz, AC3, 5.1, 640 Kbps | Оригинал | ENG
Субтитры: Русские (Full), английские

Авторизуйтесь для получения доступа к скачиванию

Нет аккаунта? Регистрация открыта и займёт меньше минуты

Вход Регистрация

General
Unique ID : 131476373568867759491309900455362268465 (0x62E96DB11972BB09CED07F0DD9C58D31)
Complete name : D:\Video111\Batman.1989.BDREMUX.2160p.HDR.seleZen.mkv
Format : Matroska
Format version : Version 4
File size : 66.3 GiB
Duration : 2 h 6 min
Overall bit rate mode : Variable
Overall bit rate : 75.1 Mb/s
Movie name : Batman 4K 1989 from селезень
Encoded date : UTC 2019-05-29 11:15:32
Writing application : mkvmerge v33.1.0 ('Primrose') 64-bit
Writing library : libebml v1.3.7 + libmatroska v1.5.0

Video
ID : 1
Format : HEVC
Format/Info : High Efficiency Video Coding
Format profile : Main [email protected]@High
HDR format : SMPTE ST 2086, HDR10 compatible
Codec ID : V_MPEGH/ISO/HEVC
Duration : 2 h 6 min
Bit rate : 70.0 Mb/s
Width : 3 840 pixels
Height : 2 160 pixels
Display aspect ratio : 16:9
Frame rate mode : Constant
Frame rate : 23.976 (24000/1001) FPS
Color space : YUV
Chroma subsampling : 4:2:0 (Type 2)
Bit depth : 10 bits
Bits/(Pixel*Frame) : 0.352
Stream size : 61.8 GiB (93%)
Writing library : ATEME Titan File 3.9.0 (4.9.0.0)
Language : English
Default : Yes
Forced : No
Color range : Limited
Color primaries : BT.2020
Transfer characteristics : PQ
Matrix coefficients : BT.2020 non-constant
Mastering display color pri : Display P3
Mastering display luminance : min: 0.0050 cd/m2, max: 4000 cd/m2
Maximum Content Light Level : 1284 cd/m2
Maximum Frame-Average Light : 113 cd/m2

Audio #1
ID : 2
Format : AC-3
Format/Info : Audio Coding 3
Commercial name : Dolby Digital
Codec ID : A_AC3
Duration : 2 h 6 min
Bit rate mode : Constant
Bit rate : 640 kb/s
Channel(s) : 6 channels
Channel layout : L R C LFE Ls Rs
Sampling rate : 48.0 kHz
Frame rate : 31.250 FPS (1536 SPF)
Bit depth : 16 bits
Compression mode : Lossy
Stream size : 578 MiB (1%)
Title : Dub [License]
Language : Russian
Service kind : Complete Main
Default : Yes
Forced : Yes

Audio #2
ID : 3
Format : MLP FBA 16-ch
Format/Info : Meridian Lossless Packing FBA with 16-channel presentation
Commercial name : Dolby TrueHD with Dolby Atmos
Codec ID : A_TRUEHD
Duration : 2 h 6 min
Bit rate mode : Variable
Bit rate : 3 772 kb/s
Maximum bit rate : 6 912 kb/s
Channel(s) : 8 channels
Channel layout : L R C LFE Ls Rs Lb Rb
Sampling rate : 48.0 kHz
Frame rate : 1 200.000 FPS (40 SPF)
Compression mode : Lossless
Stream size : 3.33 GiB (5%)
Title : Original
Language : English
Default : No
Forced : No
Number of dynamic objects : 15
Bed channel count : 1 channel
Bed channel configuration : LFE

Audio #3
ID : 4
Format : AC-3
Format/Info : Audio Coding 3
Commercial name : Dolby Digital
Codec ID : A_AC3
Duration : 2 h 6 min
Bit rate mode : Constant
Bit rate : 640 kb/s
Channel(s) : 6 channels
Channel layout : L R C LFE Ls Rs
Sampling rate : 48.0 kHz
Frame rate : 31.250 FPS (1536 SPF)
Bit depth : 16 bits
Compression mode : Lossy
Stream size : 578 MiB (1%)
Language : English
Service kind : Complete Main
Default : No
Forced : No

Text #1
ID : 5
Format : UTF-8
Codec ID : S_TEXT/UTF8
Codec ID/Info : UTF-8 Plain Text
Duration : 2 h 0 min
Bit rate : 50 b/s
Count of elements : 978
Stream size : 44.5 KiB (0%)
Title : Full
Language : Russian
Default : No
Forced : No

Text #2
ID : 6
Format : UTF-8
Codec ID : S_TEXT/UTF8
Codec ID/Info : UTF-8 Plain Text
Duration : 2 h 0 min
Bit rate : 42 b/s
Count of elements : 1264
Stream size : 37.4 KiB (0%)
Title : SDH
Language : English
Default : No
Forced : No

Menu
00:00:00.000 : en:Credits
00:02:33.153 : en:"I'm Batman"
00:07:03.590 : en:Looking Fine
00:09:26.566 : en:Better Be Sure
00:12:21.991 : en:Knox Meets Vale
00:14:41.839 : en:Grissom's #1 Guy
00:17:03.564 : en:Party at Wayne Manor
00:20:05.287 : en:Their Odd Host
00:23:57.811 : en:Axis Chemical Ambush
00:27:05.749 : en:Napier's Plunge
00:30:25.365 : en:Dinner for Two
00:34:12.259 : en:Drastic Surgery
00:36:13.546 : en:Call Me Joker
00:38:24.302 : en:"Get a Load of Me"
00:41:06.047 : en:Glad You're Dead
00:45:06.495 : en:Two Roses
00:48:06.801 : en:Vengeance - And No Press
00:50:51.465 : en:So Much to Do
00:54:18.881 : en:Put On a Happy Face
00:57:54.096 : en:Cosmetics Scare
00:59:34.070 : en:Museum Date
01:06:37.785 : en:Wonderful Toys
01:12:23.923 : en:Not Exactly Normal
01:16:28.959 : en:A Name to My Pain
01:18:18.861 : en:Not Quite Telling Her
01:21:10.449 : en:Dancing With the Devil
01:25:29.833 : en:Don't Get Personal
01:27:24.739 : en:Gauntlet Thrown
01:29:32.701 : en:Sad Memory; Getting In
01:33:57.799 : en:Chemical Inferno
01:35:50.119 : en:Gotham's Greed
01:38:15.556 : en:The Batwing
01:42:43.616 : en:Come to Me
01:46:34.013 : en:Bell Tower Ascent
01:50:10.729 : en:Bat in My Belfry
01:53:19.960 : en:Downfalls
01:59:42.967 : en:Signals
02:02:30.134 : en:End Credits

Другие фильмы
Комментарии:

...
igor_romanov020 9 апреля 2020 21:50
0

Здравствуйте. Можете залить данный торрент (отреставрированный Batman) в 1080p. И если можно то и Batman Returns



Информация
Посетители, находящиеся в группе Гости, не могут оставлять комментарии к данной публикации.
Самый популярный релиз недели

Кино копилка
...
Какую тему вы используете?

Реклама
Последние комментарии
...

sanders2

Вчера, 21:29

...

ivanfan1337

1 февраля 2023 12:49

...

Bhaar

30 января 2023 22:55

...

dembell56

29 января 2023 11:37

...

rmzshka

27 января 2023 14:23

Реклама