+4

Покемон-фильм: Секреты джунглей / Gekijouban Poketto monsuta: koko (2020) BDRip 1080p от селезень | Netflix

Информация о фильме
Название: Покемон-фильм: Секреты джунглей
Оригинальное название: Gekijouban Poketto monsuta: koko
Год выхода: 2020
Жанр: Аниме, мультфильм, приключения, фэнтези, семейный
Режиссер: Тэцуо Ядзима
В ролях: Мока Камисираиси, Икуэ Отани, Рика Мацумото, Мэгуми Хаясибара, Синъитиро Мики, Инуко Инуяма, Канкуро Накамура, Сёко Накагава, Коити Ямадэра


О фильме: Окойя — лес, в котором живёт множество покемонов. Здесь Эш Кетчум (Сатощи) и Пикачу сталкиваются с мальчиком по имени Коко, воспитанным покемонами, и встречают мифического покемона Заруда. «Покемон-фильм: Секреты джунглей» — 23-е полнометражное аниме о карманных монстрах.

Страна: Япония
Студия: Creatures, GAME FREAK, JR Kikaku, Nintendo Co. Ltd., Oriental Light and Magic, Pikachu Project, Pokemon Company, The, Shogakukan Inc., Shogakukan-Shueisha Productions, TV Tokyo
Продолжительность: 01:38:09
Перевод: Дублированный | Netflix

Качество: BDRip 1080p
Видео: MPEG-4 AVC, 1920x1080, 10.9 Mbit/s, 23.976 fps
Аудио #01: 48 kHz, E-AC3, 5.1, 640 Kbps | Дублированный | Netflix | RUS | Russia
Аудио #02: 48 kHz, AC3, 5.1, 640 Kbps | Дублированный | Netflix | RUS |Покемон-фильм: Секреты джунглей / Gekijouban Poketto monsuta: koko (2020) BDRip 1080p от селезень | Netflix
Аудио #03: 48 kHz, E-AC3, 5.1, 640 Kbps | Дублированный | Netflix | UKR |
Аудио #04: 48 kHz, AC3, 5.1, 640 Kbps | Оригинал | JAP |
Субтитры: Русские (Forced, full), украинские (Forced, Full), английские

Авторизуйтесь для получения доступа к скачиванию

Нет аккаунта? Регистрация открыта и займёт меньше минуты

Вход Регистрация

General
Unique ID : 303465939505497799504588969040169763232 (0xE44D69FBDF71B5C8366E9B4A124581A0)
Complete name : E:\Video\Pokemon.the.Movie.Secrets.of.the.Jungle.2020.BDRip.1080p.seleZen.mkv
Format : Matroska
Format version : Version 4
File size : 9.24 GiB
Duration : 1 h 39 min
Overall bit rate : 13.2 Mb/s
Movie name : Gekijouban Poketto monsutâ: koko AKA Pokémon the Movie: Secrets of the Jungle 2020 from seleZen
Encoded date : UTC 2021-10-09 14:45:26
Writing application : mkvmerge v59.0.0 ('Shining Star') 64-bit
Writing library : libebml v1.4.2 + libmatroska v1.6.4

Video
ID : 1
Format : AVC
Format/Info : Advanced Video Codec
Format profile : [email protected]
Format settings : CABAC / 4 Ref Frames
Format settings, CABAC : Yes
Format settings, Reference frames : 4 frames
Codec ID : V_MPEG4/ISO/AVC
Duration : 1 h 38 min
Bit rate : 10.9 Mb/s
Width : 1 920 pixels
Height : 1 080 pixels
Display aspect ratio : 16:9
Frame rate mode : Constant
Frame rate : 23.976 (24000/1001) FPS
Color space : YUV
Chroma subsampling : 4:2:0
Bit depth : 8 bits
Scan type : Progressive
Bits/(Pixel*Frame) : 0.219
Stream size : 7.46 GiB (81%)
Writing library : x264 core 146 -from seleZen
Encoding settings : cabac=1 / ref=4 / deblock=1:-3:-3 / analyse=0x3:0x133 / me=umh / subme=10 / psy=1 / psy_rd=1.02:0.03 / mixed_ref=1 / me_range=32 / chroma_me=1 / trellis=2 / 8x8dct=1 / cqm=0 / deadzone=21,11 / fast_pskip=0 / chroma_qp_offset=-3 / threads=36 / lookahead_threads=6 / sliced_threads=0 / nr=0 / decimate=0 / interlaced=0 / bluray_compat=0 / constrained_intra=0 / bframes=8 / b_pyramid=2 / b_adapt=2 / b_bias=0 / direct=3 / weightb=1 / open_gop=0 / weightp=2 / keyint=240 / keyint_min=23 / scenecut=40 / intra_refresh=0 / rc_lookahead=50 / rc=2pass / mbtree=0 / bitrate=10876 / ratetol=1.0 / qcomp=0.60 / qpmin=0 / qpmax=51 / qpstep=4 / cplxblur=20.0 / qblur=0.5 / vbv_maxrate=50000 / vbv_bufsize=62500 / nal_hrd=none / filler=0 / ip_ratio=1.40 / pb_ratio=1.30 / aq=3:0.80
Language : English
Default : Yes
Forced : No

Audio #1
ID : 2
Format : E-AC-3
Format/Info : Enhanced AC-3
Commercial name : Dolby Digital Plus
Codec ID : A_EAC3
Duration : 1 h 39 min
Bit rate mode : Constant
Bit rate : 640 kb/s
Channel(s) : 6 channels
Channel layout : L R C LFE Ls Rs
Sampling rate : 48.0 kHz
Frame rate : 31.250 FPS (1536 SPF)
Compression mode : Lossy
Stream size : 457 MiB (5%)
Title : Dub [Netflix]
Language : Russian
Service kind : Complete Main
Default : Yes
Forced : Yes

Audio #2
ID : 3
Format : AC-3
Format/Info : Audio Coding 3
Commercial name : Dolby Digital
Codec ID : A_AC3
Duration : 1 h 39 min
Bit rate mode : Constant
Bit rate : 640 kb/s
Channel(s) : 6 channels
Channel layout : L R C LFE Ls Rs
Sampling rate : 48.0 kHz
Frame rate : 31.250 FPS (1536 SPF)
Compression mode : Lossy
Stream size : 457 MiB (5%)
Title : Dub [Netflix]
Language : Russian
Service kind : Complete Main
Default : No
Forced : No

Audio #3
ID : 4
Format : E-AC-3
Format/Info : Enhanced AC-3
Commercial name : Dolby Digital Plus
Codec ID : A_EAC3
Duration : 1 h 39 min
Bit rate mode : Constant
Bit rate : 640 kb/s
Channel(s) : 6 channels
Channel layout : L R C LFE Ls Rs
Sampling rate : 48.0 kHz
Frame rate : 31.250 FPS (1536 SPF)
Compression mode : Lossy
Stream size : 457 MiB (5%)
Title : Dub [Netflix]
Language : Ukrainian
Service kind : Complete Main
Default : No
Forced : No

Audio #4
ID : 5
ID in the original source medium : 4352 (0x1100)
Format : AC-3
Format/Info : Audio Coding 3
Commercial name : Dolby Digital
Codec ID : A_AC3
Duration : 1 h 38 min
Bit rate mode : Constant
Bit rate : 640 kb/s
Channel(s) : 6 channels
Channel layout : L R C LFE Ls Rs
Sampling rate : 48.0 kHz
Frame rate : 31.250 FPS (1536 SPF)
Compression mode : Lossy
Stream size : 449 MiB (5%)
Title : Original
Language : Japanese
Service kind : Complete Main
Default : No
Forced : No
Original source medium : Blu-ray

Text #1
ID : 6
Format : UTF-8
Codec ID : S_TEXT/UTF8
Codec ID/Info : UTF-8 Plain Text
Duration : 3 s 754 ms
Bit rate : 68 b/s
Count of elements : 1
Stream size : 32.0 Bytes (0%)
Title : Forced
Language : Russian
Default : Yes
Forced : Yes

Text #2
ID : 7
Format : UTF-8
Codec ID : S_TEXT/UTF8
Codec ID/Info : UTF-8 Plain Text
Duration : 1 h 35 min
Bit rate : 78 b/s
Count of elements : 1193
Stream size : 55.2 KiB (0%)
Title : Full
Language : Russian
Default : No
Forced : No

Text #3
ID : 8
Format : UTF-8
Codec ID : S_TEXT/UTF8
Codec ID/Info : UTF-8 Plain Text
Duration : 1 h 37 min
Bit rate : 0 b/s
Count of elements : 3
Stream size : 102 Bytes (0%)
Title : Forced
Language : Ukrainian
Default : No
Forced : No

Text #4
ID : 9
Format : UTF-8
Codec ID : S_TEXT/UTF8
Codec ID/Info : UTF-8 Plain Text
Duration : 1 h 37 min
Bit rate : 73 b/s
Count of elements : 1425
Stream size : 52.5 KiB (0%)
Title : Full
Language : Ukrainian
Default : No
Forced : No

Text #5
ID : 10
Format : UTF-8
Codec ID : S_TEXT/UTF8
Codec ID/Info : UTF-8 Plain Text
Duration : 1 h 35 min
Bit rate : 76 b/s
Count of elements : 1841
Stream size : 53.7 KiB (0%)
Language : English
Default : No
Forced : No

Menu
00:00:00.000 : :The Law of the Jungle
00:06:41.737 : :Opening Credits
00:08:40.648 : :Okoya Jungle and the Biotope Company
00:14:44.221 : :The Healing Spring
00:21:10.734 : :Satoshi Meets Koko
00:27:17.561 : :Show Window
00:28:50.487 : :Fireworks
00:32:49.477 : :The Abandoned Laboratory
00:39:16.783 : :Dada's Power
00:45:17.186 : :Koko and Doctor Zed
00:50:56.277 : :Attack on the Jungle
01:03:49.804 : :Koko's Past
01:09:58.841 : :The Forest's Blood
01:15:26.003 : :Father and Son
01:21:41.630 : :Healing the Jungle
01:29:03.865 : :A Strange, Strange Creature
01:31:55.913 : :Celebi and Zarude
01:33:30.174 : :End Credits

Другие фильмы
У данной публикации пока нет комментариев.
Будь первым, оставь своё мнение в комментариях!
Информация
Посетители, находящиеся в группе Гости, не могут оставлять комментарии к данной публикации.
Самый популярный релиз недели
Донаты
Мы в соц. сетях / RSS

Лучшие релизы месяца
Лучшие SD недели
Лучшие 720p недели
Лучшие 1080p недели
Лучшие 4K недели
Вы недавно смотрели
Реклама
Последние комментарии
...

-=DoMiNo=-

9 апреля 2024 17:43

...

supermehanik

9 апреля 2024 16:22

...

selezinka

5 апреля 2024 16:20

...

Kirk1991

30 марта 2024 15:04

...

Robot

22 марта 2024 09:33

Реклама