+3

Покемон-фильм: Секреты джунглей / Gekijouban Poketto monsuta: koko (2020) BDRemux 1080p от селезень | Netflix

Информация о фильме
Название: Покемон-фильм: Секреты джунглей
Оригинальное название: Gekijouban Poketto monsuta: koko
Год выхода: 2020
Жанр: Аниме, мультфильм, приключения, фэнтези, семейный
Режиссер: Тэцуо Ядзима
В ролях: Мока Камисираиси, Икуэ Отани, Рика Мацумото, Мэгуми Хаясибара, Синъитиро Мики, Инуко Инуяма, Канкуро Накамура, Сёко Накагава, Коити Ямадэра


О фильме: Окойя — лес, в котором живёт множество покемонов. Здесь Эш Кетчум (Сатощи) и Пикачу сталкиваются с мальчиком по имени Коко, воспитанным покемонами, и встречают мифического покемона Заруда. «Покемон-фильм: Секреты джунглей» — 23-е полнометражное аниме о карманных монстрах.

Страна: Япония
Студия: Creatures, GAME FREAK, JR Kikaku, Nintendo Co. Ltd., Oriental Light and Magic, Pikachu Project, Pokemon Company, The, Shogakukan Inc., Shogakukan-Shueisha Productions, TV Tokyo
Продолжительность: 01:38:09
Перевод: Дублированный | Netflix

Качество: BDRemux 1080p
Видео: MPEG-4 AVC, 1920x1080, 20.1 Mbit/s, 23.976 fps
Аудио #01: 48 kHz, E-AC3, 5.1, 640 Kbps | Дублированный | Netflix | RUS | Russia
Аудио #02: 48 kHz, AC3, 5.1, 640 Kbps | Дублированный | Netflix | RUS | Russia
Аудио #03: 48 kHz, E-AC3, 5.1, 640 Kbps | Дублированный | Netflix | UKR | Ukraine
Аудио #04: 48 kHz, TrueHD, 5.1, 1690 Kbps | Оригинал | JAP |Japan
Аудио #05: 48 kHz, AC3, 5.1, 640 Kbps | Оригинал | JAP | Japan
Субтитры: Русские (Forced, full), украинские (Forced, Full), английские

Покемон-фильм: Секреты джунглей / Gekijouban Poketto monsuta: koko (2020) BDRemux 1080p от селезень | Netflix

Авторизуйтесь для получения доступа к скачиванию

Нет аккаунта? Регистрация открыта и займёт меньше минуты

Вход Регистрация

General
Unique ID : 249740380781452210379484144159620283357 (0xBBE23F6DA7EC050D631A2364CA8B3BDD)
Complete name : E:\Video\Pokemon.the.Movie.Secrets.of.the.Jungle.2020.BDREMUX.1080p.seleZen.mkv
Format : Matroska
Format version : Version 4
File size : 16.8 GiB
Duration : 1 h 39 min
Overall bit rate mode : Variable
Overall bit rate : 24.0 Mb/s
Movie name : Gekijouban Poketto monsutâ: koko AKA Pokémon the Movie: Secrets of the Jungle 2020 from seleZen
Encoded date : UTC 2021-10-09 13:35:09
Writing application : mkvmerge v59.0.0 ('Shining Star') 64-bit
Writing library : libebml v1.4.2 + libmatroska v1.6.4

Video
ID : 1
ID in the original source medium : 4113 (0x1011)
Format : AVC
Format/Info : Advanced Video Codec
Format profile : [email protected]
Format settings : CABAC / 4 Ref Frames
Format settings, CABAC : Yes
Format settings, Reference frames : 4 frames
Codec ID : V_MPEG4/ISO/AVC
Duration : 1 h 38 min
Bit rate mode : Variable
Bit rate : 20.1 Mb/s
Maximum bit rate : 40.0 Mb/s
Width : 1 920 pixels
Height : 1 080 pixels
Display aspect ratio : 16:9
Frame rate mode : Constant
Frame rate : 23.976 (24000/1001) FPS
Color space : YUV
Chroma subsampling : 4:2:0
Bit depth : 8 bits
Scan type : Progressive
Bits/(Pixel*Frame) : 0.404
Stream size : 13.8 GiB (82%)
Language : English
Default : Yes
Forced : No
Original source medium : Blu-ray

Audio #1
ID : 2
Format : E-AC-3
Format/Info : Enhanced AC-3
Commercial name : Dolby Digital Plus
Codec ID : A_EAC3
Duration : 1 h 39 min
Bit rate mode : Constant
Bit rate : 640 kb/s
Channel(s) : 6 channels
Channel layout : L R C LFE Ls Rs
Sampling rate : 48.0 kHz
Frame rate : 31.250 FPS (1536 SPF)
Compression mode : Lossy
Stream size : 457 MiB (3%)
Title : Dub [Netflix]
Language : Russian
Service kind : Complete Main
Default : Yes
Forced : Yes

Audio #2
ID : 3
Format : AC-3
Format/Info : Audio Coding 3
Commercial name : Dolby Digital
Codec ID : A_AC3
Duration : 1 h 39 min
Bit rate mode : Constant
Bit rate : 640 kb/s
Channel(s) : 6 channels
Channel layout : L R C LFE Ls Rs
Sampling rate : 48.0 kHz
Frame rate : 31.250 FPS (1536 SPF)
Compression mode : Lossy
Stream size : 457 MiB (3%)
Title : Dub [Netflix]
Language : Russian
Service kind : Complete Main
Default : No
Forced : No

Audio #3
ID : 4
Format : E-AC-3
Format/Info : Enhanced AC-3
Commercial name : Dolby Digital Plus
Codec ID : A_EAC3
Duration : 1 h 39 min
Bit rate mode : Constant
Bit rate : 640 kb/s
Channel(s) : 6 channels
Channel layout : L R C LFE Ls Rs
Sampling rate : 48.0 kHz
Frame rate : 31.250 FPS (1536 SPF)
Compression mode : Lossy
Stream size : 457 MiB (3%)
Title : Dub [Netflix]
Language : Ukrainian
Service kind : Complete Main
Default : No
Forced : No

Audio #4
ID : 5
ID in the original source medium : 4352 (0x1100)
Format : MLP FBA
Format/Info : Meridian Lossless Packing FBA
Commercial name : Dolby TrueHD
Codec ID : A_TRUEHD
Duration : 1 h 38 min
Bit rate mode : Variable
Bit rate : 1 690 kb/s
Maximum bit rate : 2 670 kb/s
Channel(s) : 6 channels
Channel layout : L R C LFE Ls Rs
Sampling rate : 48.0 kHz
Frame rate : 1 200.000 FPS (40 SPF)
Bit depth : 24 bits
Compression mode : Lossless
Stream size : 1.16 GiB (7%)
Title : Original
Language : Japanese
Default : No
Forced : No
Original source medium : Blu-ray

Audio #5
ID : 6
ID in the original source medium : 4352 (0x1100)
Format : AC-3
Format/Info : Audio Coding 3
Commercial name : Dolby Digital
Codec ID : A_AC3
Duration : 1 h 38 min
Bit rate mode : Constant
Bit rate : 640 kb/s
Channel(s) : 6 channels
Channel layout : L R C LFE Ls Rs
Sampling rate : 48.0 kHz
Frame rate : 31.250 FPS (1536 SPF)
Compression mode : Lossy
Stream size : 449 MiB (3%)
Language : Japanese
Service kind : Complete Main
Default : No
Forced : No
Original source medium : Blu-ray

Text #1
ID : 7
Format : UTF-8
Codec ID : S_TEXT/UTF8
Codec ID/Info : UTF-8 Plain Text
Duration : 3 s 754 ms
Bit rate : 68 b/s
Count of elements : 1
Stream size : 32.0 Bytes (0%)
Title : Forced
Language : Russian
Default : Yes
Forced : Yes

Text #2
ID : 8
Format : UTF-8
Codec ID : S_TEXT/UTF8
Codec ID/Info : UTF-8 Plain Text
Duration : 1 h 35 min
Bit rate : 78 b/s
Count of elements : 1193
Stream size : 55.2 KiB (0%)
Title : Full
Language : Russian
Default : No
Forced : No

Text #3
ID : 9
Format : UTF-8
Codec ID : S_TEXT/UTF8
Codec ID/Info : UTF-8 Plain Text
Duration : 1 h 37 min
Bit rate : 0 b/s
Count of elements : 3
Stream size : 102 Bytes (0%)
Title : Forced
Language : Ukrainian
Default : No
Forced : No

Text #4
ID : 10
Format : UTF-8
Codec ID : S_TEXT/UTF8
Codec ID/Info : UTF-8 Plain Text
Duration : 1 h 37 min
Bit rate : 73 b/s
Count of elements : 1425
Stream size : 52.5 KiB (0%)
Title : Full
Language : Ukrainian
Default : No
Forced : No

Text #5
ID : 11
Format : UTF-8
Codec ID : S_TEXT/UTF8
Codec ID/Info : UTF-8 Plain Text
Duration : 1 h 35 min
Bit rate : 76 b/s
Count of elements : 1841
Stream size : 53.7 KiB (0%)
Language : English
Default : No
Forced : No

Menu
00:00:00.000 : :The Law of the Jungle
00:06:41.737 : :Opening Credits
00:08:40.648 : :Okoya Jungle and the Biotope Company
00:14:44.221 : :The Healing Spring
00:21:10.734 : :Satoshi Meets Koko
00:27:17.561 : :Show Window
00:28:50.487 : :Fireworks
00:32:49.477 : :The Abandoned Laboratory
00:39:16.783 : :Dada's Power
00:45:17.186 : :Koko and Doctor Zed
00:50:56.277 : :Attack on the Jungle
01:03:49.804 : :Koko's Past
01:09:58.841 : :The Forest's Blood
01:15:26.003 : :Father and Son
01:21:41.630 : :Healing the Jungle
01:29:03.865 : :A Strange, Strange Creature
01:31:55.913 : :Celebi and Zarude
01:33:30.174 : :End Credits

Другие фильмы
У данной публикации пока нет комментариев.
Будь первым, оставь своё мнение в комментариях!
Информация
Посетители, находящиеся в группе Гости, не могут оставлять комментарии к данной публикации.
Самый популярный релиз недели
Донаты
Мы в соц. сетях / RSS

Лучшие релизы месяца
Лучшие SD недели
Лучшие 720p недели
Лучшие 1080p недели
Лучшие 4K недели
Вы недавно смотрели
Реклама
Последние комментарии
...

rmzshka

12 июля 2024 11:30

...

Rustik99

12 июля 2024 10:11

...

-=DoMiNo=-

11 июля 2024 23:42

...

rmzshka

11 июля 2024 11:28

...

-=DoMiNo=-

10 июля 2024 15:08

Реклама