+6

Да, боже, да / Одержима сексом / Yes, God, Yes (2019) BDRemux 1080p от селезень | iTunes

Информация о фильме
Название: Да, боже, да / Одержима сексом
Оригинальное название: Yes, God, Yes
Год выхода: 2019
Жанр: Драма, комедия
Режиссер: Карен Мэйн
В ролях: Наталия Дайер, Тимоти С. Саймонс, Вольфганг Новограц, Франческа Реале, Сьюзэн Блэкуэлл, Алиша Боэ, Донна Линн Чамплин, Паркер Вьерлинг, Эллисон Шрум, Мэтт Льюис


О фильме: 1999 год. Ученица старших классов католической школы про имени Элис всегда соблюдала все правила, примерно ходила на исповеди и в церковь и боялась вечного проклятия за многократный просмотр сцены в карете из «Титаника». Однажды в интернет-чате, где девушка участвовала в викторине, у неё завязывается короткая, но откровенная переписка, что приводит школьницу к некоторым физиологическим открытиям. Кто-то пускает по школе слух про неприличное поведение Элис на одной вечеринке, а она в компании лучшей подруги собирается на уик-энд в религиозный лагерь, что, как обещают уже посетившие его, изменит её жизнь навсегда.

Страна: США
Студия: Automatik Entertainment, LuckyChap Entertainment, Romulus Entertainment
Продолжительность: 01:17:27
Перевод: Профессиональный многоголосый | iTunes

Качество: BDRemux 1080p
Видео: MPEG-4 AVC, 1920x1080, 33.5 Mbit/s, 24.000 fps
Аудио #01: 48 kHz, AC3, 5.1, 384 Kbps | Профессиональный многоголосый | RUS |Да, боже, да / Одержима сексом / Yes, God, Yes (2019) BDRemux 1080p от селезень | iTunes
Аудио #02: 48 kHz, AC3, 2.0, 192 Kbps | Профессиональный многоголосый | UKR |
Аудио #03: 48 kHz, DTS-HD MA, 5.1, 3236 Kbps | Оригинал | ENG |
Субтитры: Английские

Авторизуйтесь для получения доступа к скачиванию

Нет аккаунта? Регистрация открыта и займёт меньше минуты

Вход Регистрация

General
Unique ID : 164404111141218265589450076853535382308 (0x7BAF147EFD9CF77850421A2FB74E1B24)
Complete name : D:\Video\Yes.God.Yes.2019.BDREMUX.1080p.seleZen.mkv
Format : Matroska
Format version : Version 4
File size : 20.2 GiB
Duration : 1 h 17 min
Overall bit rate mode : Variable
Overall bit rate : 37.4 Mb/s
Movie name : Yes, God, Yes 2019 from seleZen
Encoded date : UTC 2021-02-05 19:47:10
Writing application : mkvmerge v52.0.0 ('Secret For The Mad') 64-bit
Writing library : libebml v1.4.1 + libmatroska v1.6.2

Video
ID : 1
Format : AVC
Format/Info : Advanced Video Codec
Format profile : [email protected]
Format settings : CABAC / 4 Ref Frames
Format settings, CABAC : Yes
Format settings, Reference : 4 frames
Codec ID : V_MPEG4/ISO/AVC
Duration : 1 h 17 min
Bit rate mode : Variable
Bit rate : 33.5 Mb/s
Maximum bit rate : 36.0 Mb/s
Width : 1 920 pixels
Height : 1 080 pixels
Display aspect ratio : 16:9
Frame rate mode : Constant
Frame rate : 24.000 FPS
Color space : YUV
Chroma subsampling : 4:2:0
Bit depth : 8 bits
Scan type : Progressive
Bits/(Pixel*Frame) : 0.674
Stream size : 18.2 GiB (90%)
Language : German
Default : Yes
Forced : No

Audio #1
ID : 2
Format : AC-3
Format/Info : Audio Coding 3
Commercial name : Dolby Digital
Codec ID : A_AC3
Duration : 1 h 17 min
Bit rate mode : Constant
Bit rate : 384 kb/s
Channel(s) : 6 channels
Channel layout : L R C LFE Ls Rs
Sampling rate : 48.0 kHz
Frame rate : 31.250 FPS (1536 SPF)
Compression mode : Lossy
Stream size : 213 MiB (1%)
Title : Full
Language : Russian
Service kind : Complete Main
Default : Yes
Forced : Yes

Audio #2
ID : 3
Format : AC-3
Format/Info : Audio Coding 3
Commercial name : Dolby Digital
Codec ID : A_AC3
Duration : 1 h 17 min
Bit rate mode : Constant
Bit rate : 192 kb/s
Channel(s) : 2 channels
Channel layout : L R
Sampling rate : 48.0 kHz
Frame rate : 31.250 FPS (1536 SPF)
Compression mode : Lossy
Stream size : 106 MiB (1%)
Title : iTunes
Language : Ukrainian
Service kind : Complete Main
Default : No
Forced : No

Audio #3
ID : 4
Format : DTS XLL
Format/Info : Digital Theater Systems
Commercial name : DTS-HD Master Audio
Codec ID : A_DTS
Duration : 1 h 17 min
Bit rate mode : Variable
Bit rate : 3 236 kb/s
Channel(s) : 6 channels
Channel layout : C L R Ls Rs LFE
Sampling rate : 48.0 kHz
Frame rate : 93.750 FPS (512 SPF)
Bit depth : 24 bits
Compression mode : Lossless
Stream size : 1.75 GiB (9%)
Language : English
Default : No
Forced : No

Text #1
ID : 5
Format : UTF-8
Codec ID : S_TEXT/UTF8
Codec ID/Info : UTF-8 Plain Text
Duration : 1 h 15 min
Bit rate : 51 b/s
Count of elements : 946
Stream size : 28.5 KiB (0%)
Title : Full
Language : English
Default : No
Forced : No

Text #2
ID : 6
Format : UTF-8
Codec ID : S_TEXT/UTF8
Codec ID/Info : UTF-8 Plain Text
Duration : 1 h 16 min
Bit rate : 55 b/s
Count of elements : 1093
Stream size : 31.0 KiB (0%)
Title : SDH
Language : English
Default : No
Forced : No

Menu
00:00:00.000 : de:Глава 01
00:04:29.125 : de:Глава 02
00:09:00.833 : de:Глава 03
00:12:43.000 : de:Глава 04
00:15:53.583 : de:Глава 05
00:19:34.333 : de:Глава 06
00:22:57.042 : de:Глава 07
00:26:33.542 : de:Глава 08
00:31:38.167 : de:Глава 09
00:35:22.958 : de:Глава 10
00:41:19.958 : de:Глава 11
00:45:49.375 : de:Глава 12
00:52:26.917 : de:Глава 13
01:01:02.042 : de:Глава 14
01:07:25.250 : de:Глава 15
01:12:36.250 : de:Глава 16

Другие фильмы
У данной публикации пока нет комментариев.
Будь первым, оставь своё мнение в комментариях!
Информация
Посетители, находящиеся в группе Гости, не могут оставлять комментарии к данной публикации.
Самый популярный релиз недели
Донаты
Мы в соц. сетях / RSS

Лучшие релизы месяца
Лучшие SD недели
Лучшие 720p недели
Лучшие 1080p недели
Лучшие 4K недели
Вы недавно смотрели
Реклама
Последние комментарии
...

rmzshka

15 мая 2024 13:43

...

Andrey_Vladimirovich

13 мая 2024 18:12

...

Robot

13 мая 2024 16:53

...

rmzshka

13 мая 2024 16:21

...

supermehanik

13 мая 2024 02:03

Реклама