+5

Малышка с характером / The Doorman (2020) BDRemux 1080p от селезень | GER Transfer | iTunes

Информация о фильме
Название: Малышка с характером
Оригинальное название: The Doorman
Год выхода: 2020
Жанр: Боевик, триллер
Режиссер: Рюхэй Китамура
В ролях: Руби Роуз, Жан Рено, Аксель Хенни, Руперт Эванс, Джулиан Федер, Дэвид Сакурай, Луис Мэндилор, Хидэаки Ито, Кила Лорд Кэссиди, Филип Уитчёрч


О фильме: В центре событий оказывается Эли Горски, служившая ранее в морской пехоте, а ныне работающая швейцаром в респектабельном отеле Нью-Йорка. Сыграла героиню Роуз. И именно ей придется выстроить грамотный план действий, дабы обвести вокруг пальца бандитов, возглавляемых жестоким лидером, которого сыграл Жан Рено. На протяжении всего времени девушке приходится обеспечивать защиту отеля, на который напали грабители, специализирующиеся на похищении произведений искусства.

Страна: США
Студия: Lionsgate, Anamorphic Media, Double Dutch International, Smash Media, CR8IV DNA
Продолжительность: 01:36:55
Перевод: Дублированный | iTunes

Качество: BDRemux 1080p
Видео: MPEG-4 AVC, 1920x1080, 33.5 Mbit/s, 23.976 fps
Аудио #01: 48 kHz, AC3, 5.1, 384 Kbps | iTunes | RUS |Малышка с характером / The Doorman (2020) BDRemux 1080p от селезень | GER Transfer | iTunes
Аудио #02: 48 kHz, DTS-HD MA, 5.1, 3386 Kbps | Оригинал | ENG |
Аудио #03: 48 kHz, DTS-HD MA, 5.1, 3383 Kbps | Оригинал | GER |
Субтитры: Английские

*Без хардсаба.

Авторизуйтесь для получения доступа к скачиванию

Нет аккаунта? Регистрация открыта и займёт меньше минуты

Вход Регистрация

General
Unique ID : 130002405986815799676417235548801068332 (0x61CD8D7AAEC5AF7790F453619A63ED2C)
Complete name : E:\VideoFirst\The.Doorman.2020.Ger.BDREMUX.1080p.seleZen.mkv
Format : Matroska
Format version : Version 4
File size : 27.6 GiB
Duration : 1 h 36 min
Overall bit rate mode : Variable
Overall bit rate : 40.7 Mb/s
Movie name : The Doorman 2020 from seleZen
Encoded date : UTC 2020-12-23 23:33:35
Writing application : mkvmerge v40.0.0 ('Old Town Road + Pony') 64-bit
Writing library : libebml v1.3.9 + libmatroska v1.5.2

Video
ID : 1
Format : AVC
Format/Info : Advanced Video Codec
Format profile : [email protected]
Format settings : CABAC / 3 Ref Frames
Format settings, CABAC : Yes
Format settings, Reference : 3 frames
Codec ID : V_MPEG4/ISO/AVC
Duration : 1 h 36 min
Bit rate mode : Variable
Bit rate : 33.5 Mb/s
Maximum bit rate : 35.0 Mb/s
Width : 1 920 pixels
Height : 1 080 pixels
Display aspect ratio : 16:9
Frame rate mode : Constant
Frame rate : 23.976 (24000/1001) FPS
Color space : YUV
Chroma subsampling : 4:2:0
Bit depth : 8 bits
Scan type : Progressive
Bits/(Pixel*Frame) : 0.674
Stream size : 22.7 GiB (82%)
Language : German
Default : Yes
Forced : No

Audio #1
ID : 2
Format : AC-3
Format/Info : Audio Coding 3
Commercial name : Dolby Digital
Codec ID : A_AC3
Duration : 1 h 36 min
Bit rate mode : Constant
Bit rate : 384 kb/s
Channel(s) : 6 channels
Channel layout : L R C LFE Ls Rs
Sampling rate : 48.0 kHz
Frame rate : 31.250 FPS (1536 SPF)
Compression mode : Lossy
Stream size : 266 MiB (1%)
Title : iTunes
Language : Russian
Service kind : Complete Main
Default : Yes
Forced : Yes

Audio #2
ID : 3
Format : DTS XLL
Format/Info : Digital Theater Systems
Commercial name : DTS-HD Master Audio
Codec ID : A_DTS
Duration : 1 h 36 min
Bit rate mode : Variable
Bit rate : 3 386 kb/s
Channel(s) : 6 channels
Channel layout : C L R Ls Rs LFE
Sampling rate : 48.0 kHz
Frame rate : 93.750 FPS (512 SPF)
Bit depth : 24 bits
Compression mode : Lossless
Stream size : 2.29 GiB (8%)
Title : Original
Language : English
Default : No
Forced : No

Audio #3
ID : 4
Format : DTS XLL
Format/Info : Digital Theater Systems
Commercial name : DTS-HD Master Audio
Codec ID : A_DTS
Duration : 1 h 36 min
Bit rate mode : Variable
Bit rate : 3 383 kb/s
Channel(s) : 6 channels
Channel layout : C L R Ls Rs LFE
Sampling rate : 48.0 kHz
Frame rate : 93.750 FPS (512 SPF)
Bit depth : 24 bits
Compression mode : Lossless
Stream size : 2.29 GiB (8%)
Title : Original
Language : German
Default : No
Forced : No

Text #1
ID : 5
Format : UTF-8
Codec ID : S_TEXT/UTF8
Codec ID/Info : UTF-8 Plain Text
Duration : 1 h 0 min
Bit rate : 0 b/s
Count of elements : 14
Stream size : 339 Bytes (0%)
Title : Forced
Language : English
Default : No
Forced : No

Text #2
ID : 6
Format : UTF-8
Codec ID : S_TEXT/UTF8
Codec ID/Info : UTF-8 Plain Text
Duration : 1 h 30 min
Bit rate : 48 b/s
Count of elements : 1078
Stream size : 32.6 KiB (0%)
Title : Full
Language : English
Default : No
Forced : No

Text #3
ID : 7
Format : UTF-8
Codec ID : S_TEXT/UTF8
Codec ID/Info : UTF-8 Plain Text
Duration : 1 h 30 min
Bit rate : 65 b/s
Count of elements : 1233
Stream size : 44.0 KiB (0%)
Title : SDH
Language : English
Default : No
Forced : No

Menu
00:00:00.000 : de:Глава 01
00:06:21.089 : de:Глава 02
00:15:03.820 : de:Глава 03
00:24:15.120 : de:Глава 04
00:33:01.688 : de:Глава 05
00:42:19.162 : de:Глава 06
00:51:43.517 : de:Глава 07
00:59:06.710 : de:Глава 08
01:07:56.072 : de:Глава 09
01:16:41.347 : de:Глава 10
01:24:17.010 : de:Глава 11
01:29:32.576 : de:Глава 12

Другие фильмы
У данной публикации пока нет комментариев.
Будь первым, оставь своё мнение в комментариях!
Информация
Посетители, находящиеся в группе Гости, не могут оставлять комментарии к данной публикации.
Самый популярный релиз недели
Донаты
Мы в соц. сетях / RSS

Лучшие релизы месяца
Лучшие SD недели
Лучшие 720p недели
Лучшие 1080p недели
Лучшие 4K недели
Вы недавно смотрели
Реклама
Последние комментарии
...

rmzshka

15 мая 2024 13:43

...

Andrey_Vladimirovich

13 мая 2024 18:12

...

Robot

13 мая 2024 16:53

...

rmzshka

13 мая 2024 16:21

...

supermehanik

13 мая 2024 02:03

Реклама