+9

Довод / Tenet (2020) UHD BDRip 2160p от селезень | 4K | HDR | IMAX | iTunes

Информация о фильме
Название: Довод
Оригинальное название: Tenet
Год выхода: 2020
Жанр: Фантастика, боевик, сюрреализм
Режиссер: Кристофер Нолан
В ролях: Джон Дэвид Вашингтон, Роберт Паттинсон, Элизабет Дебики, Кеннет Брана, Аарон Тейлор-Джонсон, Клеманс Поэзи, Фиона Дуриф, Майкл Кейн, Химеш Патель, Эндрю Ховард, Уэс Чэтэм, Юрий Колокольников, Димпл Кападиа


О фильме: После теракта в Национальной Опере Украины агент ЦРУ объединяется с британской разведкой, чтобы противостоять русскому олигарху, который сколотил состояние на торговле оружием. Вооруженный единственным словом - Тенет (довод) главный герой борется за выживание всего мира. Он путешествует по окутанному сумерками миру международного шпионажа с единственной миссией, которая развернется за пределами реального времени. Это не путешествие сквозь время. Это инверсия.

Страна: Великобритания, США
Студия: Syncopy, Warner Bros.
Продолжительность: 02:30:08
Перевод: Дублированный | iTunes

Качество: BDRip 2160p
Видео: 3840x2160 at 23.976 fps, MPEG-H HEVC HDR Video, 28200 kbps avg
Аудио #01: 48 kHz, AC3, 5.1, 384 Kbps | iTunes | RUS |Довод / Tenet (2020) UHD BDRip 2160p от селезень | 4K | HDR | IMAX | iTunes
Аудио #02: 48 kHz, AC3, 2.0, 192 Kbps | iTunes | UKR |
Аудио #03: 48 kHz, DTS-HD MA, 5.1, 4036 Kbps | Оригинал | ENG |
Субтитры: Русские (Forced, full), украинские (Forced), английские

Довод / Tenet (2020) UHD BDRip 2160p от селезень | 4K | HDR | IMAX | iTunes

Авторизуйтесь для получения доступа к скачиванию

Нет аккаунта? Регистрация открыта и займёт меньше минуты

Вход Регистрация

General
Unique ID : 287220379416900115976199346577880910809 (0xD814A208136875ADA1FC7530FCE80BD9)
Complete name : E:\VideoFirst\Tenet.2020.BDRip.2160p.HDR.seleZen.mkv
Format : Matroska
Format version : Version 4
File size : 34.4 GiB
Duration : 2 h 30 min
Overall bit rate mode : Variable
Overall bit rate : 32.8 Mb/s
Movie name : Tenet 2020 from seleZen
Encoded date : UTC 2020-12-15 11:47:10
Writing application : mkvmerge v40.0.0 ('Old Town Road + Pony') 64-bit
Writing library : libebml v1.3.9 + libmatroska v1.5.2

Video
ID : 1
Format : HEVC
Format/Info : High Efficiency Video Coding
Format profile : Main [email protected]@High
HDR format : SMPTE ST 2086, HDR10 compatible
Codec ID : V_MPEGH/ISO/HEVC
Duration : 2 h 30 min
Bit rate : 28.2 Mb/s
Width : 3 840 pixels
Height : 2 160 pixels
Display aspect ratio : 16:9
Frame rate mode : Constant
Frame rate : 23.976 (24000/1001) FPS
Color space : YUV
Chroma subsampling : 4:2:0 (Type 2)
Bit depth : 10 bits
Bits/(Pixel*Frame) : 0.142
Stream size : 29.6 GiB (86%)
Title : CtrlHD
Writing library : x265 3.4+26-ga82c6c7a7:[Windows][GCC 10.2.1][64 bit] 10bit
Encoding settings : cpuid=1111039 / frame-threads=4 / numa-pools=24 / wpp / no-pmode / no-pme / no-psnr / no-ssim / log-level=2 / input-csp=1 / input-res=3840x2160 / interlace=0 / total-frames=216024 / level-idc=51 / high-tier=1 / uhd-bd=0 / ref=4 / no-allow-non-conformance / repeat-headers / annexb / aud / no-hrd / info / hash=0 / no-temporal-layers / open-gop / min-keyint=23 / keyint=250 / gop-lookahead=0 / bframes=4 / b-adapt=2 / b-pyramid / bframe-bias=0 / rc-lookahead=40 / lookahead-slices=4 / scenecut=40 / hist-scenecut=0 / radl=0 / no-splice / no-intra-refresh / ctu=64 / min-cu-size=8 / no-rect / no-amp / max-tu-size=32 / tu-inter-depth=4 / tu-intra-depth=4 / limit-tu=4 / rdoq-level=2 / dynamic-rd=0.00 / no-ssim-rd / signhide / no-tskip / nr-intra=0 / nr-inter=0 / no-constrained-intra / strong-intra-smoothing / max-merge=4 / limit-refs=1 / limit-modes / me=3 / subme=5 / merange=57 / temporal-mvp / no-frame-dup / no-hme / weightp / no-weightb / no-analyze-src-pics / deblock=0:0 / no-sao / no-sao-non-deblock / rd=4 / selective-sao=0 / no-early-skip / rskip / no-fast-intra / no-tskip-fast / no-cu-lossless / no-b-intra / no-splitrd-skip / rdpenalty=0 / psy-rd=2.00 / psy-rdoq=6.00 / no-rd-refine / no-lossless / cbqpoffs=-2 / crqpoffs=-2 / rc=crf / crf=18.6 / qcomp=0.60 / qpstep=4 / stats-write=0 / stats-read=0 / vbv-maxrate=160000 / vbv-bufsize=160000 / vbv-init=0.9 / min-vbv-fullness=50.0 / max-vbv-fullness=80.0 / crf-max=0.0 / crf-min=0.0 / ipratio=1.40 / pbratio=1.30 / aq-mode=1 / aq-strength=0.75 / no-cutree / zone-count=0 / no-strict-cbr / qg-size=32 / no-rc-grain / qpmax=69 / qpmin=0 / no-const-vbv / sar=0 / overscan=0 / videoformat=5 / range=0 / colorprim=9 / transfer=16 / colormatrix=9 / chromaloc=1 / chromaloc-top=2 / chromaloc-bottom=2 / display-window=0 / master-display=G(13250,34500)B(7500,3000)R(34000,16000)WP(15635,16450)L(40000000,50) / cll=349,86 / min-luma=0 / max-luma=1023 / log2-max-poc-lsb=8 / vui-timing-info / vui-hrd-info / slices=1 / no-opt-qp-pps / no-opt-ref-list-length-pps / no-multi-pass-opt-rps / scenecut-bias=0.05 / hist-threshold=0.03 / no-opt-cu-delta-qp / no-aq-motion / hdr10 / hdr10-opt / no-dhdr10-opt / no-idr-recovery-sei / analysis-reuse-level=0 / analysis-save-reuse-level=0 / analysis-load-reuse-level=0 / scale-factor=0 / refine-intra=0 / refine-inter=0 / refine-mv=1 / refine-ctu-distortion=0 / no-limit-sao / ctu-info=0 / no-lowpass-dct / refine-analysis-type=0 / copy-pic=1 / max-ausize-factor=1.0 / no-dynamic-refine / no-single-sei / no-hevc-aq / no-svt / no-field / qp-adaptation-range=1.00 / no-scenecut-aware-qpconformance-window-offsets / right=0 / bottom=0 / decoder-max-rate=0 / no-vbv-live-multi-pass
Language : English
Default : Yes
Forced : No
Color range : Limited
Color primaries : BT.2020
Transfer characteristics : PQ
Matrix coefficients : BT.2020 non-constant
Mastering display color pri : Display P3
Mastering display luminance : min: 0.0050 cd/m2, max: 4000 cd/m2
Maximum Content Light Level : 349 cd/m2
Maximum Frame-Average Light : 86 cd/m2

Audio #1
ID : 2
Format : AC-3
Format/Info : Audio Coding 3
Commercial name : Dolby Digital
Codec ID : A_AC3
Duration : 2 h 30 min
Bit rate mode : Constant
Bit rate : 384 kb/s
Channel(s) : 6 channels
Channel layout : L R C LFE Ls Rs
Sampling rate : 48.0 kHz
Frame rate : 31.250 FPS (1536 SPF)
Compression mode : Lossy
Stream size : 412 MiB (1%)
Title : iTunes
Language : Russian
Service kind : Complete Main
Default : Yes
Forced : Yes

Audio #2
ID : 3
Format : AC-3
Format/Info : Audio Coding 3
Commercial name : Dolby Digital
Codec ID : A_AC3
Duration : 2 h 30 min
Bit rate mode : Constant
Bit rate : 192 kb/s
Channel(s) : 2 channels
Channel layout : L R
Sampling rate : 48.0 kHz
Frame rate : 31.250 FPS (1536 SPF)
Compression mode : Lossy
Stream size : 206 MiB (1%)
Title : iTunes
Language : Ukrainian
Service kind : Complete Main
Default : No
Forced : No

Audio #3
ID : 4
Format : DTS XLL
Format/Info : Digital Theater Systems
Commercial name : DTS-HD Master Audio
Codec ID : A_DTS
Duration : 2 h 30 min
Bit rate mode : Variable
Bit rate : 4 036 kb/s
Channel(s) : 6 channels
Channel layout : C L R Ls Rs LFE
Sampling rate : 48.0 kHz
Frame rate : 93.750 FPS (512 SPF)
Bit depth : 24 bits
Compression mode : Lossless
Stream size : 4.23 GiB (12%)
Title : Original
Language : English
Default : No
Forced : No

Text #1
ID : 5
Format : UTF-8
Codec ID : S_TEXT/UTF8
Codec ID/Info : UTF-8 Plain Text
Duration : 2 h 27 min
Bit rate : 0 b/s
Count of elements : 28
Stream size : 811 Bytes (0%)
Title : Forced
Language : Russian
Default : Yes
Forced : Yes

Text #2
ID : 6
Format : UTF-8
Codec ID : S_TEXT/UTF8
Codec ID/Info : UTF-8 Plain Text
Duration : 2 h 28 min
Bit rate : 90 b/s
Count of elements : 1854
Stream size : 98.8 KiB (0%)
Title : Full
Language : Russian
Default : No
Forced : No

Text #3
ID : 7
Format : UTF-8
Codec ID : S_TEXT/UTF8
Codec ID/Info : UTF-8 Plain Text
Duration : 2 h 16 min
Bit rate : 0 b/s
Count of elements : 24
Stream size : 731 Bytes (0%)
Title : Forced
Language : Ukrainian
Default : No
Forced : No

Text #4
ID : 8
Format : UTF-8
Codec ID : S_TEXT/UTF8
Codec ID/Info : UTF-8 Plain Text
Duration : 2 h 22 min
Bit rate : 52 b/s
Count of elements : 1840
Stream size : 55.4 KiB (0%)
Title : Full
Language : English
Default : No
Forced : No

Text #5
ID : 9
Format : UTF-8
Codec ID : S_TEXT/UTF8
Codec ID/Info : UTF-8 Plain Text
Duration : 2 h 26 min
Bit rate : 59 b/s
Count of elements : 2141
Stream size : 64.0 KiB (0%)
Title : SDH
Language : English
Default : No
Forced : No

Menu
00:00:00.000 : :Chapter 01
00:09:39.412 : :Chapter 02
00:19:30.503 : :Chapter 03
00:28:18.405 : :Chapter 04
00:38:49.369 : :Chapter 05
00:49:20.166 : :Chapter 06
01:00:33.255 : :Chapter 07
01:09:41.511 : :Chapter 08
01:22:36.410 : :Chapter 09
01:30:54.741 : :Chapter 10
01:39:40.683 : :Chapter 11
01:51:02.322 : :Chapter 12
01:59:40.799 : :Chapter 13
02:11:42.853 : :Chapter 14
02:19:07.089 : :Chapter 15

Другие фильмы
Комментарии:

...
brayanfury03 19 апреля 2022 21:40
0

Please upload Dark Knight Trilogy In 2160p UHD BDREMUX

...
besyatina 18 января 2021 14:11
0

2160р рипы всегда хорошо! 

...
Liten 17 января 2021 00:19
0

Если нужна помощь в кодировке и тд. Обращайтесь, есть Ryzen 1950x с частотой 3.9 на воде (т.е. стабильные 16+16 ядер без тротла), и 1080ti аналогично, памяти тоже 32гб, накопители 2xRaid 0 2еи и 2 nvme по 512/. Канал в 300мбит, белый ипишник и ftp сервер.
Сам в основном только выкидываю лишние дорожки, и собираю в mkv, сейчас изучаю как старые m2ts\mp4 в HEVC кодировать.
По ночам могу смело закидывать в работу, комп пашет 24/7

...
SPYbboy 14 января 2021 13:29
0

Рипы 2160 - хорошая идея.

...
Robot 14 января 2021 08:19
-1

Codd,
Будет интерес к данному виду контента, будут и рипы.  wink 
На данный момент интереса мало у народа, к рипам 2160p. 
Но мы подумает над этим.  wink

...
Desol 13 января 2021 16:25
0

Codd,
Может проблема в ограниченности ресурсов? Времени там... ну или банально финансов и мотивации? Странный вы человек... или вы серьёзно думаете что сделать хороший рип просто и быстро?

...
Codd 13 января 2021 11:08
0

Почему рипов так мало в 4к, в чем проблема такая????

Информация
Посетители, находящиеся в группе Гости, не могут оставлять комментарии к данной публикации.
Самый популярный релиз недели
Донаты
Мы в соц. сетях / RSS

Лучшие релизы месяца
Лучшие SD недели
Лучшие 720p недели
Лучшие 1080p недели
Лучшие 4K недели
Вы недавно смотрели
Реклама
Последние комментарии
...

rmzshka

15 мая 2024 13:43

...

Andrey_Vladimirovich

13 мая 2024 18:12

...

Robot

13 мая 2024 16:53

...

rmzshka

13 мая 2024 16:21

...

supermehanik

13 мая 2024 02:03

Реклама