+2

Не все дома / 10 jours sans maman (2020) BDRemux 1080p от селезень | iTunes

Информация о фильме
Название: Не все дома
Оригинальное название: 10 jours sans maman
Год выхода: 2020
Жанр: Комедия
Режиссер: Людовик Бернард
В ролях: Ор Атика, Алексис Михалик, Франк Дюбоск, Элена Ногуэрра, Лоран Бато, Алис Давид, Руперт Уинн-Джеймс, Габриэль Мари, Владимир Перрин, Лиза Патюрель


О фильме: Мама большого и дружного семейства уезжает в небольшой отпуск, чтобы восстановить силы. Муж, уверенный, что домашнее хозяйство по сравнению с управлением большой компанией - это пара пустяков, смело остается с детьми. Десять дней, три ребенка, один папа... что могло пойти не так?

Страна: Франция
Студия: Soyouz Films, StudioCanal, Canal+
Продолжительность: 01:37:51
Перевод: Дублированный | iTunes

Качество: BDRemux 1080p
Видео: MPEG-4 AVC, 1920x1080, 37.1 Mbit/s, 24.000 fps
Аудио #01: 48 kHz, AC3, 5.1, 384 Kbps | iTunes | RUS |Не все дома / 10 jours sans maman (2020) BDRemux 1080p от селезень | iTunes
Аудио #02: 48 kHz, DTS-HD MA, 5.1, 2691 Kbps | Оригинал | FRE |
Субтитры: Нет

Авторизуйтесь для получения доступа к скачиванию

Нет аккаунта? Регистрация открыта и займёт меньше минуты

Вход Регистрация

General
Unique ID : 155764633307404460004396393252127030899 (0x752F2D5A1DE48EEF93C1D8B73974BE73)
Complete name : E:\VideoFirst\10.Jours.Sans.Maman.2020.BDREMUX.1080p.seleZen.mkv
Format : Matroska
Format version : Version 4
File size : 27.5 GiB
Duration : 1 h 37 min
Overall bit rate mode : Variable
Overall bit rate : 40.2 Mb/s
Movie name : 10 Jours Sans Maman 2020 from seleZen
Encoded date : UTC 2020-12-12 19:31:11
Writing application : mkvmerge v40.0.0 ('Old Town Road + Pony') 64-bit
Writing library : libebml v1.3.9 + libmatroska v1.5.2

Video
ID : 1
Format : AVC
Format/Info : Advanced Video Codec
Format profile : [email protected]
Format settings : CABAC / 2 Ref Frames
Format settings, CABAC : Yes
Format settings, Reference : 2 frames
Codec ID : V_MPEG4/ISO/AVC
Duration : 1 h 37 min
Bit rate mode : Variable
Bit rate : 37.1 Mb/s
Width : 1 920 pixels
Height : 1 080 pixels
Display aspect ratio : 16:9
Frame rate mode : Constant
Frame rate : 24.000 FPS
Color space : YUV
Chroma subsampling : 4:2:0
Bit depth : 8 bits
Scan type : Progressive
Bits/(Pixel*Frame) : 0.746
Stream size : 25.4 GiB (92%)
Language : French
Default : No
Forced : No

Audio #1
ID : 2
Format : AC-3
Format/Info : Audio Coding 3
Commercial name : Dolby Digital
Codec ID : A_AC3
Duration : 1 h 37 min
Bit rate mode : Constant
Bit rate : 384 kb/s
Channel(s) : 6 channels
Channel layout : L R C LFE Ls Rs
Sampling rate : 48.0 kHz
Frame rate : 31.250 FPS (1536 SPF)
Compression mode : Lossy
Stream size : 269 MiB (1%)
Title : iTunes
Language : Russian
Service kind : Complete Main
Default : Yes
Forced : Yes

Audio #2
ID : 3
Format : DTS XLL
Format/Info : Digital Theater Systems
Commercial name : DTS-HD Master Audio
Codec ID : A_DTS
Duration : 1 h 37 min
Bit rate mode : Variable
Bit rate : 2 691 kb/s
Channel(s) : 6 channels
Channel layout : C L R Ls Rs LFE
Sampling rate : 48.0 kHz
Frame rate : 93.750 FPS (512 SPF)
Bit depth : 24 bits
Compression mode : Lossless
Stream size : 1.84 GiB (7%)
Title : Original
Language : French
Default : No
Forced : No

Menu
00:00:00.000 : en:Chapter 01
00:07:57.000 : en:Chapter 02
00:16:44.666 : en:Chapter 03
00:23:46.916 : en:Chapter 04
00:31:53.791 : en:Chapter 05
00:39:58.166 : en:Chapter 06
00:50:04.125 : en:Chapter 07
01:00:03.583 : en:Chapter 08
01:06:07.083 : en:Chapter 09
01:11:29.833 : en:Chapter 10
01:17:35.083 : en:Chapter 11
01:23:51.166 : en:Chapter 12

Другие фильмы
У данной публикации пока нет комментариев.
Будь первым, оставь своё мнение в комментариях!
Информация
Посетители, находящиеся в группе Гости, не могут оставлять комментарии к данной публикации.
Самый популярный релиз недели
Донаты
Мы в соц. сетях / RSS

Лучшие релизы месяца
Лучшие SD недели
Лучшие 720p недели
Лучшие 1080p недели
Лучшие 4K недели
Вы недавно смотрели
Реклама
Последние комментарии
...

rmzshka

15 мая 2024 13:43

...

Andrey_Vladimirovich

13 мая 2024 18:12

...

Robot

13 мая 2024 16:53

...

rmzshka

13 мая 2024 16:21

...

supermehanik

13 мая 2024 02:03

Реклама