+4

Не все дома / 10 jours sans maman (2020) BDRip 1080p от селезень | iTunes

Информация о фильме
Название: Не все дома
Оригинальное название: 10 jours sans maman
Год выхода: 2020
Жанр: Комедия
Режиссер: Людовик Бернард
В ролях: Ор Атика, Алексис Михалик, Франк Дюбоск, Элена Ногуэрра, Лоран Бато, Алис Давид, Руперт Уинн-Джеймс, Габриэль Мари, Владимир Перрин, Лиза Патюрель


О фильме: Мама большого и дружного семейства уезжает в небольшой отпуск, чтобы восстановить силы. Муж, уверенный, что домашнее хозяйство по сравнению с управлением большой компанией - это пара пустяков, смело остается с детьми. Десять дней, три ребенка, один папа... что могло пойти не так?

Страна: Франция
Студия: Soyouz Films, StudioCanal, Canal+
Продолжительность: 01:37:51
Перевод: Дублированный | iTunes

Качество: BDRip 1080p
Видео: MPEG-4 AVC, 1920x804, 11.8 Mbit/s, 24.000 fps
Аудио #01: 48 kHz, AC3, 5.1, 384 Kbps | iTunes | RUS |Не все дома / 10 jours sans maman (2020) BDRip 1080p от селезень | iTunes
Аудио #02: 48 kHz, AC3, 5.1, 640 Kbps | Оригинал | FRE |
Субтитры: Нет

Авторизуйтесь для получения доступа к скачиванию

Нет аккаунта? Регистрация открыта и займёт меньше минуты

Вход Регистрация

General
Unique ID : 89160140690143798679085854418817546188 (0x43139E54B61B466A1974B541C80077CC)
Complete name : E:\VideoFirst\10.Jours.Sans.Maman.2020.BDRip.1080p.seleZen.mkv
Format : Matroska
Format version : Version 4
File size : 8.76 GiB
Duration : 1 h 37 min
Overall bit rate : 12.8 Mb/s
Movie name : 10 Jours Sans Maman 2020 from seleZen
Encoded date : UTC 2020-12-12 19:19:44
Writing application : mkvmerge v40.0.0 ('Old Town Road + Pony') 64-bit
Writing library : libebml v1.3.9 + libmatroska v1.5.2

Video
ID : 1
Format : AVC
Format/Info : Advanced Video Codec
Format profile : [email protected]
Format settings : CABAC / 5 Ref Frames
Format settings, CABAC : Yes
Format settings, Reference : 5 frames
Codec ID : V_MPEG4/ISO/AVC
Duration : 1 h 37 min
Bit rate : 11.8 Mb/s
Width : 1 920 pixels
Height : 804 pixels
Display aspect ratio : 2.40:1
Frame rate mode : Constant
Frame rate : 24.000 FPS
Color space : YUV
Chroma subsampling : 4:2:0
Bit depth : 8 bits
Scan type : Progressive
Bits/(Pixel*Frame) : 0.318
Stream size : 8.06 GiB (92%)
Writing library : x264 core 160 r3000 33f9e14
Encoding settings : cabac=1 / ref=5 / deblock=1:-3:-3 / analyse=0x3:0x133 / me=umh / subme=11 / psy=1 / psy_rd=1.05:0.00 / mixed_ref=1 / me_range=32 / chroma_me=1 / trellis=2 / 8x8dct=1 / cqm=0 / deadzone=21,11 / fast_pskip=0 / chroma_qp_offset=-2 / threads=12 / lookahead_threads=2 / sliced_threads=0 / nr=0 / decimate=0 / interlaced=0 / bluray_compat=0 / constrained_intra=0 / bframes=9 / b_pyramid=2 / b_adapt=2 / b_bias=0 / direct=3 / weightb=1 / open_gop=0 / weightp=2 / keyint=240 / keyint_min=24 / scenecut=40 / intra_refresh=0 / rc_lookahead=60 / rc=2pass / mbtree=0 / bitrate=11799 / ratetol=1.0 / qcomp=0.65 / qpmin=0 / qpmax=69 / qpstep=4 / cplxblur=20.0 / qblur=0.5 / vbv_maxrate=50000 / vbv_bufsize=62500 / nal_hrd=none / filler=0 / ip_ratio=1.40 / pb_ratio=1.30 / aq=3:0.80
Language : French
Default : Yes
Forced : No
Color range : Limited
Color primaries : BT.709
Transfer characteristics : BT.709
Matrix coefficients : BT.709

Audio #1
ID : 2
Format : AC-3
Format/Info : Audio Coding 3
Commercial name : Dolby Digital
Codec ID : A_AC3
Duration : 1 h 37 min
Bit rate mode : Constant
Bit rate : 384 kb/s
Channel(s) : 6 channels
Channel layout : L R C LFE Ls Rs
Sampling rate : 48.0 kHz
Frame rate : 31.250 FPS (1536 SPF)
Compression mode : Lossy
Stream size : 269 MiB (3%)
Title : iTunes
Language : Russian
Service kind : Complete Main
Default : Yes
Forced : Yes

Audio #2
ID : 3
Format : AC-3
Format/Info : Audio Coding 3
Commercial name : Dolby Digital
Codec ID : A_AC3
Duration : 1 h 37 min
Bit rate mode : Constant
Bit rate : 640 kb/s
Channel(s) : 6 channels
Channel layout : L R C LFE Ls Rs
Sampling rate : 48.0 kHz
Frame rate : 31.250 FPS (1536 SPF)
Compression mode : Lossy
Stream size : 448 MiB (5%)
Title : Original
Language : French
Service kind : Complete Main
Default : No
Forced : No

Menu
00:00:00.000 : en:Chapter 01
00:07:57.000 : en:Chapter 02
00:16:44.666 : en:Chapter 03
00:23:46.916 : en:Chapter 04
00:31:53.791 : en:Chapter 05
00:39:58.166 : en:Chapter 06
00:50:04.125 : en:Chapter 07
01:00:03.583 : en:Chapter 08
01:06:07.083 : en:Chapter 09
01:11:29.833 : en:Chapter 10
01:17:35.083 : en:Chapter 11
01:23:51.166 : en:Chapter 12

Другие фильмы
У данной публикации пока нет комментариев.
Будь первым, оставь своё мнение в комментариях!
Информация
Посетители, находящиеся в группе Гости, не могут оставлять комментарии к данной публикации.
Самый популярный релиз недели
Донаты
Мы в соц. сетях / RSS

Лучшие релизы месяца
Лучшие SD недели
Лучшие 720p недели
Лучшие 1080p недели
Лучшие 4K недели
Вы недавно смотрели
Реклама
Последние комментарии
...

rmzshka

15 мая 2024 13:43

...

Andrey_Vladimirovich

13 мая 2024 18:12

...

Robot

13 мая 2024 16:53

...

rmzshka

13 мая 2024 16:21

...

supermehanik

13 мая 2024 02:03

Реклама