+1

Да, боже, да / Одержима сексом / Yes, God, Yes (2019) BDRip 720p от селезень | iTunes

Информация о фильме
Название: Да, боже, да / Одержима сексом
Оригинальное название: Yes, God, Yes
Год выхода: 2019
Жанр: Драма, комедия
Режиссер: Карен Мэйн
В ролях: Наталия Дайер, Тимоти С. Саймонс, Вольфганг Новограц, Франческа Реале, Сьюзэн Блэкуэлл, Алиша Боэ, Донна Линн Чамплин, Паркер Вьерлинг, Эллисон Шрум, Мэтт Льюис


О фильме: 1999 год. Ученица старших классов католической школы про имени Элис всегда соблюдала все правила, примерно ходила на исповеди и в церковь и боялась вечного проклятия за многократный просмотр сцены в карете из «Титаника». Однажды в интернет-чате, где девушка участвовала в викторине, у неё завязывается короткая, но откровенная переписка, что приводит школьницу к некоторым физиологическим открытиям. Кто-то пускает по школе слух про неприличное поведение Элис на одной вечеринке, а она в компании лучшей подруги собирается на уик-энд в религиозный лагерь, что, как обещают уже посетившие его, изменит её жизнь навсегда.

Страна: США
Студия: Automatik Entertainment, LuckyChap Entertainment, Romulus Entertainment
Продолжительность: 01:17:27
Перевод: Профессиональный многоголосый | iTunes

Качество: BDRip 720p
Видео: MPEG-4 AVC, 1280x690, 8500 Kbit/s, 24.000 fps
Аудио #01: 48 kHz, AC3, 5.1, 384 Kbps | Профессиональный многоголосый | RUS |Да, боже, да / Одержима сексом / Yes, God, Yes (2019) BDRip 720p от селезень | iTunes
Аудио #02: 48 kHz, AC3, 2.0, 192 Kbps | Профессиональный многоголосый | UKR |
Аудио #03: 48 kHz, AC3, 5.1, 640 Kbps | Оригинал | ENG |
Субтитры: Английские

Авторизуйтесь для получения доступа к скачиванию

Нет аккаунта? Регистрация открыта и займёт меньше минуты

Вход Регистрация

General
Unique ID : 26662369714497105430187121255215695037 (0x140EFC51BBA9025FA1FFF70CA5A684BD)
Complete name : D:\Video\Yes.God.Yes.2019.BDRip.720p.seleZen.mkv
Format : Matroska
Format version : Version 4
File size : 5.25 GiB
Duration : 1 h 17 min
Overall bit rate : 9 694 kb/s
Movie name : Yes, God, Yes 2019 from seleZen
Encoded date : UTC 2021-02-06 13:42:29
Writing application : mkvmerge v52.0.0 ('Secret For The Mad') 64-bit
Writing library : libebml v1.4.1 + libmatroska v1.6.2

Video
ID : 1
Format : AVC
Format/Info : Advanced Video Codec
Format profile : [email protected]
Format settings : CABAC / 9 Ref Frames
Format settings, CABAC : Yes
Format settings, Reference : 9 frames
Codec ID : V_MPEG4/ISO/AVC
Duration : 1 h 17 min
Bit rate : 8 500 kb/s
Width : 1 280 pixels
Height : 690 pixels
Display aspect ratio : 1.85:1
Frame rate mode : Constant
Frame rate : 24.000 FPS
Color space : YUV
Chroma subsampling : 4:2:0
Bit depth : 8 bits
Scan type : Progressive
Bits/(Pixel*Frame) : 0.401
Stream size : 4.59 GiB (87%)
Writing library : x264 core 161 -from seleZen
Encoding settings : cabac=1 / ref=9 / deblock=1:-2:-2 / analyse=0x3:0x113 / me=umh / subme=10 / psy=1 / psy_rd=1.04:0.03 / mixed_ref=1 / me_range=32 / chroma_me=1 / trellis=2 / 8x8dct=1 / cqm=0 / deadzone=21,11 / fast_pskip=0 / chroma_qp_offset=-3 / threads=22 / lookahead_threads=3 / sliced_threads=0 / nr=0 / decimate=0 / interlaced=0 / bluray_compat=0 / constrained_intra=0 / bframes=9 / b_pyramid=2 / b_adapt=2 / b_bias=0 / direct=3 / weightb=1 / open_gop=0 / weightp=2 / keyint=240 / keyint_min=23 / scenecut=40 / intra_refresh=0 / rc_lookahead=40 / rc=2pass / mbtree=0 / bitrate=8500 / ratetol=1.0 / qcomp=0.60 / qpmin=0 / qpmax=51 / qpstep=4 / cplxblur=20.0 / qblur=0.5 / vbv_maxrate=50000 / vbv_bufsize=62000 / nal_hrd=none / filler=0 / ip_ratio=1.40 / pb_ratio=1.30 / aq=3:0.80
Language : German
Default : Yes
Forced : No

Audio #1
ID : 2
Format : AC-3
Format/Info : Audio Coding 3
Commercial name : Dolby Digital
Codec ID : A_AC3
Duration : 1 h 17 min
Bit rate mode : Constant
Bit rate : 384 kb/s
Channel(s) : 6 channels
Channel layout : L R C LFE Ls Rs
Sampling rate : 48.0 kHz
Frame rate : 31.250 FPS (1536 SPF)
Compression mode : Lossy
Stream size : 213 MiB (4%)
Title : Full
Language : Russian
Service kind : Complete Main
Default : Yes
Forced : Yes

Audio #2
ID : 3
Format : AC-3
Format/Info : Audio Coding 3
Commercial name : Dolby Digital
Codec ID : A_AC3
Duration : 1 h 17 min
Bit rate mode : Constant
Bit rate : 192 kb/s
Channel(s) : 2 channels
Channel layout : L R
Sampling rate : 48.0 kHz
Frame rate : 31.250 FPS (1536 SPF)
Compression mode : Lossy
Stream size : 106 MiB (2%)
Title : iTunes
Language : Ukrainian
Service kind : Complete Main
Default : No
Forced : No

Audio #3
ID : 4
Format : AC-3
Format/Info : Audio Coding 3
Commercial name : Dolby Digital
Codec ID : A_AC3
Duration : 1 h 17 min
Bit rate mode : Constant
Bit rate : 640 kb/s
Channel(s) : 6 channels
Channel layout : L R C LFE Ls Rs
Sampling rate : 48.0 kHz
Frame rate : 31.250 FPS (1536 SPF)
Compression mode : Lossy
Stream size : 355 MiB (7%)
Title : Original
Language : English
Service kind : Complete Main
Default : No
Forced : No

Text #1
ID : 5
Format : UTF-8
Codec ID : S_TEXT/UTF8
Codec ID/Info : UTF-8 Plain Text
Duration : 1 h 15 min
Bit rate : 51 b/s
Count of elements : 946
Stream size : 28.5 KiB (0%)
Title : Full
Language : English
Default : No
Forced : No

Text #2
ID : 6
Format : UTF-8
Codec ID : S_TEXT/UTF8
Codec ID/Info : UTF-8 Plain Text
Duration : 1 h 16 min
Bit rate : 55 b/s
Count of elements : 1093
Stream size : 31.0 KiB (0%)
Title : SDH
Language : English
Default : No
Forced : No

Menu
00:00:00.000 : de:Глава 01
00:04:29.125 : de:Глава 02
00:09:00.833 : de:Глава 03
00:12:43.000 : de:Глава 04
00:15:53.583 : de:Глава 05
00:19:34.333 : de:Глава 06
00:22:57.042 : de:Глава 07
00:26:33.542 : de:Глава 08
00:31:38.167 : de:Глава 09
00:35:22.958 : de:Глава 10
00:41:19.958 : de:Глава 11
00:45:49.375 : de:Глава 12
00:52:26.917 : de:Глава 13
01:01:02.042 : de:Глава 14
01:07:25.250 : de:Глава 15
01:12:36.250 : de:Глава 16

Другие фильмы
У данной публикации пока нет комментариев.
Будь первым, оставь своё мнение в комментариях!
Информация
Посетители, находящиеся в группе Гости, не могут оставлять комментарии к данной публикации.
Самый популярный релиз недели
Донаты
Мы в соц. сетях / RSS

Лучшие релизы месяца
Лучшие SD недели
Лучшие 720p недели
Лучшие 1080p недели
Лучшие 4K недели
Вы недавно смотрели
Реклама
Последние комментарии
...

rmzshka

15 мая 2024 13:43

...

Andrey_Vladimirovich

13 мая 2024 18:12

...

Robot

13 мая 2024 16:53

...

rmzshka

13 мая 2024 16:21

...

supermehanik

13 мая 2024 02:03

Реклама