+4

Кукла 2: Брамс / Brahms: The Boy II (2020) UHD BDRemux 2160p от селезень | 4K | HDR | iTunes

Информация о фильме
Название: Кукла 2: Брамс
Оригинальное название: Brahms: The Boy II
Год выхода: 2020
Жанр: Ужасы, триллер, драма, детектив
Режиссер: Уильям Брент Белл
В ролях: Кэти Холмс, Овайн Йомэн, Кристофер Конвери, Ралф Айнесон, Анджали Джай, Оливер Райс, Натали Ривалин, Дафна Хоскинс, Джоэли Коллинз, Элли Кинг


О фильме: Благополучная семья переезжает в старинный особняк Хилшир. Неподалёку в лесу сын откапывает странную куклу в практически ростом с него самого. Мальчик начинает общаться с куклой как с живым ребенком, не подозревая, чем обернется эта зловещая дружба.

Страна: США
Студия: Huayi Brothers, Lakeshore Entertainment, STX Entertainment
Продолжительность: 01:26:36
Перевод: Дублированный | iTunes

Качество: BDRemux 2160p
Видео: 3840x2160 at 23.976 fps, MPEG-H HEVC HDR Video, 59100 kbps avg
Аудио #01: 48 kHz, AC3, 5.1, 384 Kbps | iTunes | RUS |Кукла 2: Брамс / Brahms: The Boy II (2020) UHD BDRemux 2160p от селезень | 4K | HDR | iTunes
Аудио #02: 48 kHz, DTS-HD MA, 5.1, 1784 Kbps | Оригинал | ENG |
Субтитры: Русские (Full, SDH), английские

Авторизуйтесь для получения доступа к скачиванию

Нет аккаунта? Регистрация открыта и займёт меньше минуты

Вход Регистрация

General
Unique ID : 121714391959270931986667529825720628501 (0x5B9156D6B5ED0928C2003166F8167515)
Complete name : E:\Video111\Brahms.The.Boy.II.2020.BDREMUX.2160p.seleZen.mkv
Format : Matroska
Format version : Version 4
File size : 37.1 GiB
Duration : 1 h 26 min
Overall bit rate mode : Variable
Overall bit rate : 61.3 Mb/s
Movie name : Brahms The Boy II 2020 from селезень
Encoded date : UTC 2020-06-25 09:21:22
Writing application : mkvmerge v40.0.0 ('Old Town Road + Pony') 64-bit
Writing library : libebml v1.3.9 + libmatroska v1.5.2

Video
ID : 1
Format : HEVC
Format/Info : High Efficiency Video Coding
Format profile : Main [email protected]@High
HDR format : SMPTE ST 2086, HDR10 compatible
Codec ID : V_MPEGH/ISO/HEVC
Duration : 1 h 26 min
Bit rate : 59.1 Mb/s
Width : 3 840 pixels
Height : 2 160 pixels
Display aspect ratio : 16:9
Frame rate mode : Constant
Frame rate : 23.976 (24000/1001) FPS
Color space : YUV
Chroma subsampling : 4:2:0 (Type 2)
Bit depth : 10 bits
Bits/(Pixel*Frame) : 0.297
Stream size : 35.8 GiB (96%)
Language : English
Default : Yes
Forced : No
Color range : Limited
Color primaries : BT.2020
Transfer characteristics : PQ
Matrix coefficients : BT.2020 non-constant
Mastering display color pri : Display P3
Mastering display luminance : min: 0.0050 cd/m2, max: 1000 cd/m2
Maximum Content Light Level : 712 cd/m2
Maximum Frame-Average Light : 355 cd/m2

Audio #1
ID : 2
Format : AC-3
Format/Info : Audio Coding 3
Commercial name : Dolby Digital
Codec ID : A_AC3
Duration : 1 h 26 min
Bit rate mode : Constant
Bit rate : 384 kb/s
Channel(s) : 6 channels
Channel layout : L R C LFE Ls Rs
Sampling rate : 48.0 kHz
Frame rate : 31.250 FPS (1536 SPF)
Compression mode : Lossy
Stream size : 238 MiB (1%)
Title : iTunes
Language : Russian
Service kind : Complete Main
Default : Yes
Forced : Yes

Audio #2
ID : 3
Format : DTS XLL
Format/Info : Digital Theater Systems
Commercial name : DTS-HD Master Audio
Codec ID : A_DTS
Duration : 1 h 26 min
Bit rate mode : Variable
Bit rate : 1 784 kb/s
Channel(s) : 6 channels
Channel layout : C L R Ls Rs LFE
Sampling rate : 48.0 kHz
Frame rate : 93.750 FPS (512 SPF)
Bit depth : 16 bits
Compression mode : Lossless
Stream size : 1.08 GiB (3%)
Title : Original
Language : English
Default : No
Forced : No

Text #1
ID : 4
Format : UTF-8
Codec ID : S_TEXT/UTF8
Codec ID/Info : UTF-8 Plain Text
Duration : 1 h 19 min
Bit rate : 79 b/s
Count of elements : 921
Stream size : 46.2 KiB (0%)
Title : Full
Language : Russian
Default : No
Forced : No

Text #2
ID : 5
Format : UTF-8
Codec ID : S_TEXT/UTF8
Codec ID/Info : UTF-8 Plain Text
Duration : 1 h 19 min
Bit rate : 90 b/s
Count of elements : 1068
Stream size : 52.5 KiB (0%)
Title : SDH
Language : Russian
Default : No
Forced : No

Text #3
ID : 6
Format : UTF-8
Codec ID : S_TEXT/UTF8
Codec ID/Info : UTF-8 Plain Text
Duration : 1 h 18 min
Bit rate : 41 b/s
Count of elements : 865
Stream size : 24.0 KiB (0%)
Title : Full
Language : English
Default : No
Forced : No

Text #4
ID : 7
Format : UTF-8
Codec ID : S_TEXT/UTF8
Codec ID/Info : UTF-8 Plain Text
Duration : 1 h 18 min
Bit rate : 46 b/s
Count of elements : 972
Stream size : 26.7 KiB (0%)
Title : SDH
Language : English
Default : No
Forced : No

Menu
00:00:00.000 : en:Глава 01
00:07:33.495 : en:Глава 02
00:13:58.004 : en:Глава 03
00:23:24.403 : en:Глава 04
00:30:05.637 : en:Глава 05
00:38:52.038 : en:Глава 06
00:46:03.636 : en:Глава 07
00:51:56.905 : en:Глава 08
00:58:48.066 : en:Глава 09
01:05:08.613 : en:Глава 10
01:10:35.231 : en:Глава 11
01:17:50.624 : en:Глава 12

Другие фильмы
У данной публикации пока нет комментариев.
Будь первым, оставь своё мнение в комментариях!
Информация
Посетители, находящиеся в группе Гости, не могут оставлять комментарии к данной публикации.
Самый популярный релиз недели
Донаты
Мы в соц. сетях / RSS

Лучшие релизы месяца
Лучшие SD недели
Лучшие 720p недели
Лучшие 1080p недели
Лучшие 4K недели
Вы недавно смотрели
Реклама
Последние комментарии
...

rmzshka

12 июля 2024 11:30

...

Rustik99

12 июля 2024 10:11

...

-=DoMiNo=-

11 июля 2024 23:42

...

rmzshka

11 июля 2024 11:28

...

-=DoMiNo=-

10 июля 2024 15:08

Реклама