+6

21 мост / 21 Bridges (2019) UHD BDRemux 2160p от селезень | 4K | HDR | D, A | iTunes

Информация о фильме
Название: 21 мост
Оригинальное название: 21 Bridges
Год выхода: 2019
Жанр: Боевик, триллер, драма, криминал
Режиссер: Брайан Кирк
В ролях: Чэдвик Боузмэн, Сиенна Миллер, Тейлор Китч, Дж.К. Симмонс, Стэфан Джеймс, Кит Дэвид, Александр Сиддиг, Луис Канселми, Виктория Картахена, Гари Карр


О фильме: Он охотится на преступников, которые совершили на Манхэттене дерзкое ограбление, оставив после себя 8 мертвых полицейских. А продажные копы тем временем охотятся на него, пытаясь подставить. Но преступникам не скрыться, так как первый раз в истории Нью-Йорка полиция перекрыла все выходы с острова, в том числе 21 мост.

Страна: США
Студия: AGBO, Huayi Brothers, MWM Studios
Продолжительность: 01:40:27
Перевод(ы):
#1: Дублированный | iTunes

#2: Авторский | Евгений Гаевский

Качество: BDRemux 2160p
Видео: 3840x2160 at 24.000 fps, MPEG-H HEVC HDR Video, 69000 kbps avg
Аудио #01: 48 kHz, AC3, 5.1, 384 Kbps | Дублированный | RUS |21 мост / 21 Bridges (2019) UHD BDRemux 2160p от селезень | 4K | HDR | D, A | iTunes
Аудио #02: 48 kHz, DTS-HD MA, 5.1, 3789 Kbps | Авторский | RUS |
Аудио #03: 48 kHz, DTS-HD MA, 5.1, 3763 Kbps | Оригинал | ENG |
Субтитры: Русские (Full), английские

Авторизуйтесь для получения доступа к скачиванию

Нет аккаунта? Регистрация открыта и займёт меньше минуты

Вход Регистрация

General
Unique ID : 78929498000872366088881834191113704711 (0x3B6144B3DDA093BB1668D7730B405507)
Complete name : E:\Video111\21.Bridges.2019.BDREMUX.2160p.HDR.seleZen.mkv
Format : Matroska
Format version : Version 4
File size : 54.0 GiB
Duration : 1 h 40 min
Overall bit rate mode : Variable
Overall bit rate : 77.0 Mb/s
Movie name : 21 Bridges 2019 from селезень
Encoded date : UTC 2020-06-14 04:01:12
Writing application : mkvmerge v40.0.0 ('Old Town Road + Pony') 64-bit
Writing library : libebml v1.3.9 + libmatroska v1.5.2

Video
ID : 1
Format : HEVC
Format/Info : High Efficiency Video Coding
Format profile : Main [email protected]@High
HDR format : SMPTE ST 2086, HDR10 compatible
Codec ID : V_MPEGH/ISO/HEVC
Duration : 1 h 40 min
Bit rate : 69.0 Mb/s
Width : 3 840 pixels
Height : 2 160 pixels
Display aspect ratio : 16:9
Frame rate mode : Constant
Frame rate : 24.000 FPS
Color space : YUV
Chroma subsampling : 4:2:0 (Type 2)
Bit depth : 10 bits
Bits/(Pixel*Frame) : 0.347
Stream size : 48.4 GiB (90%)
Writing library : ATEME Titan File 3.9.4 (4.9.4.0)
Language : German
Default : Yes
Forced : No
Color range : Limited
Color primaries : BT.2020
Transfer characteristics : PQ
Matrix coefficients : BT.2020 non-constant
Mastering display color pri : Display P3
Mastering display luminance : min: 0.0050 cd/m2, max: 1000 cd/m2
Maximum Content Light Level : 766 cd/m2
Maximum Frame-Average Light : 466 cd/m2

Audio #1
ID : 2
Format : AC-3
Format/Info : Audio Coding 3
Commercial name : Dolby Digital
Codec ID : A_AC3
Duration : 1 h 39 min
Bit rate mode : Constant
Bit rate : 384 kb/s
Channel(s) : 6 channels
Channel layout : L R C LFE Ls Rs
Sampling rate : 48.0 kHz
Frame rate : 31.250 FPS (1536 SPF)
Compression mode : Lossy
Stream size : 274 MiB (0%)
Title : iTunes
Language : Russian
Service kind : Complete Main
Default : Yes
Forced : Yes

Audio #2
ID : 3
Format : DTS XLL
Format/Info : Digital Theater Systems
Commercial name : DTS-HD Master Audio
Codec ID : A_DTS
Duration : 1 h 39 min
Bit rate mode : Variable
Bit rate : 3 789 kb/s
Channel(s) : 6 channels
Channel layout : C L R Ls Rs LFE
Sampling rate : 48.0 kHz
Frame rate : 93.750 FPS (512 SPF)
Bit depth : 24 bits
Compression mode : Lossless
Stream size : 2.64 GiB (5%)
Title : AVO [Гаевский]
Language : Russian
Default : No
Forced : No

Audio #3
ID : 4
Format : DTS XLL
Format/Info : Digital Theater Systems
Commercial name : DTS-HD Master Audio
Codec ID : A_DTS
Duration : 1 h 40 min
Bit rate mode : Variable
Bit rate : 3 763 kb/s
Channel(s) : 6 channels
Channel layout : C L R Ls Rs LFE
Sampling rate : 48.0 kHz
Frame rate : 93.750 FPS (512 SPF)
Bit depth : 24 bits
Compression mode : Lossless
Stream size : 2.64 GiB (5%)
Title : Original
Language : English
Default : No
Forced : No

Text #1
ID : 5
Format : UTF-8
Codec ID : S_TEXT/UTF8
Codec ID/Info : UTF-8 Plain Text
Duration : 1 h 30 min
Bit rate : 85 b/s
Count of elements : 982
Stream size : 56.4 KiB (0%)
Title : Full
Language : Russian
Default : No
Forced : No

Text #2
ID : 6
Format : UTF-8
Codec ID : S_TEXT/UTF8
Codec ID/Info : UTF-8 Plain Text
Duration : 1 h 29 min
Bit rate : 52 b/s
Count of elements : 1116
Stream size : 34.5 KiB (0%)
Title : Full
Language : English
Default : No
Forced : No

Text #3
ID : 7
Format : UTF-8
Codec ID : S_TEXT/UTF8
Codec ID/Info : UTF-8 Plain Text
Duration : 1 h 30 min
Bit rate : 56 b/s
Count of elements : 1249
Stream size : 37.6 KiB (0%)
Title : SDH
Language : English
Default : No
Forced : No

Menu
00:00:00.000 : de:Глава 01
00:08:55.208 : de:Глава 02
00:21:38.292 : de:Глава 03
00:29:48.333 : de:Глава 04
00:39:11.417 : de:Глава 05
00:48:50.167 : de:Глава 06
00:59:36.458 : de:Глава 07
01:07:52.750 : de:Глава 08
01:16:05.375 : de:Глава 09
01:28:48.458 : de:Глава 10

Другие фильмы
У данной публикации пока нет комментариев.
Будь первым, оставь своё мнение в комментариях!
Информация
Посетители, находящиеся в группе Гости, не могут оставлять комментарии к данной публикации.
Самый популярный релиз недели
Донаты
Мы в соц. сетях / RSS

Лучшие релизы месяца
Лучшие SD недели
Лучшие 720p недели
Лучшие 1080p недели
Лучшие 4K недели
Вы недавно смотрели
Реклама
Последние комментарии
...

-=DoMiNo=-

9 апреля 2024 17:43

...

supermehanik

9 апреля 2024 16:22

...

selezinka

5 апреля 2024 16:20

...

Kirk1991

30 марта 2024 15:04

...

Robot

22 марта 2024 09:33

Реклама