+3

Игра королевы / Firebrand (2023) WEB-DL 1080p от селезень | D

Информация о фильме
Название: Игра королевы
Оригинальное название: Firebrand
Год выхода: 2023
Жанр: драма, история, триллер
Режиссер: Карим Айнуз
В ролях: Алисия Викандер, Джуд Лоу, Эдди Марсан, Саймон Расселл Бил, Руби Бенталл, Сэм Райли, Брайони Ханна, Эрин Доэрти, Амр Вакед, Миа Триплтон

О фильме: Англия эпохи Тюдоров. Страной правит Генрих VIII, известный своей жестокостью даже к женам, две из которых были обезглавлены. Екатерина Парр, аристократка выдающегося ума и сильного характера, становится уже шестой его женой и осознает риск своего положения. Съедаемый паранойей Генрих везде видит предателей и врагов, а в сердце Екатерины зреет запретная страсть. Сможет ли она победить в этой опасной игре, когда на кону стоит не только престол, но и жизнь?

Страна: Великобритания, США
Студия: Brouhaha Entertainment, FilmNation Entertainment, Magnolia Mae Inc., MBK Productions
Продолжительность: 01:55:44
Перевод: Дублированный | Мосфильм-Мастер

Качество: WEB-DL 1080p
Видео: MPEG-4 AVC, 1920x804, 3077 Kbit/s, 25.000 fps
Аудио #01: 48 kHz, AC3, 5.1, 448 Kbps | Дублированный | Мосфильм-Мастер | RUS |Игра королевы / Firebrand (2023) WEB-DL 1080p от селезень | D
Аудио #02: 48 kHz, E-AC3, 5.1, 448 Kbps | Дублированный | Мосфильм-Мастер | RUS |
Субтитры: Отсутствуют

Игра королевы / Firebrand (2023) WEB-DL 1080p от селезень | D

Авторизуйтесь для получения доступа к скачиванию

Нет аккаунта? Регистрация открыта и займёт меньше минуты

Вход Регистрация

General
Unique ID : 244288644766909767436885189658730239911 (0xB7C8481722F96665C12D86E8F42717A7)
Complete name : E:\WorkE\Firebrand.2023.WEB-DL.1080p.seleZen.mkv
Format : Matroska
Format version : Version 4
File size : 3.21 GiB
Duration : 1 h 55 min
Overall bit rate : 3 975 kb/s
Frame rate : 25.000 FPS
Movie name : Firebrand 2023 from seleZen
Encoded date : 2024-07-05 08:15:45 UTC
Writing application : mkvmerge v85.0 ('Shame For You') 64-bit
Writing library : libebml v1.4.5 + libmatroska v1.7.1

Video
ID : 1
Format : AVC
Format/Info : Advanced Video Codec
Format profile : Progressive High@L4
Format settings : CABAC / 5 Ref Frames
Format settings, CABAC : Yes
Format settings, Reference : 5 frames
Codec ID : V_MPEG4/ISO/AVC
Duration : 1 h 55 min
Bit rate : 3 077 kb/s
Width : 1 920 pixels
Height : 804 pixels
Display aspect ratio : 2.39:1
Frame rate mode : Constant
Frame rate : 25.000 FPS
Color space : YUV
Chroma subsampling : 4:2:0
Bit depth : 8 bits
Scan type : Progressive
Bits/(Pixel*Frame) : 0.080
Stream size : 2.49 GiB (77%)
Writing library : x264 core 157
Encoding settings : cabac=1 / ref=5 / deblock=1:0:0 / analyse=0x3:0x133 / me=umh / subme=10 / psy=1 / psy_rd=1.00:0.00 / mixed_ref=1 / me_range=24 / chroma_me=1 / trellis=2 / 8x8dct=1 / cqm=0 / deadzone=21,11 / fast_pskip=1 / chroma_qp_offset=-2 / threads=25 / lookahead_threads=4 / sliced_threads=0 / nr=0 / decimate=1 / interlaced=0 / bluray_compat=0 / stitchable=1 / constrained_intra=0 / bframes=8 / b_pyramid=2 / b_adapt=2 / b_bias=0 / direct=3 / weightb=1 / open_gop=0 / weightp=2 / keyint=250 / keyint_min=25 / scenecut=40 / intra_refresh=0 / rc_lookahead=100 / rc=crf / mbtree=1 / crf=19.6 / qcomp=0.60 / qpmin=0 / qpmax=69 / qpstep=4 / ip_ratio=1.40 / aq=1:1.00
Language : English
Default : Yes
Forced : No

Audio #1
ID : 2
Format : AC-3
Format/Info : Audio Coding 3
Commercial name : Dolby Digital
Codec ID : A_AC3
Duration : 1 h 55 min
Bit rate mode : Constant
Bit rate : 448 kb/s
Channel(s) : 6 channels
Channel layout : L R C LFE Ls Rs
Sampling rate : 48.0 kHz
Frame rate : 31.250 FPS (1536 SPF)
Compression mode : Lossy
Stream size : 371 MiB (11%)
Title : "Русский 5.1 Dub (МОСФИЛЬМ-МАСТЕР)"
Language : Russian
Service kind : Complete Main
Default : Yes
Forced : No
Dialog Normalization : -31 dB
cmixlev : -3.0 dB
surmixlev : -6 dB
dialnorm_Average : -31 dB
dialnorm_Minimum : -31 dB
dialnorm_Maximum : -31 dB

Audio #2
ID : 3
Format : E-AC-3
Format/Info : Enhanced AC-3
Commercial name : Dolby Digital Plus
Codec ID : A_EAC3
Duration : 1 h 55 min
Bit rate mode : Constant
Bit rate : 448 kb/s
Channel(s) : 6 channels
Channel layout : L R C LFE Ls Rs
Sampling rate : 48.0 kHz
Frame rate : 31.250 FPS (1536 SPF)
Bit depth : 32 bits
Compression mode : Lossy
Stream size : 371 MiB (11%)
Title : "Русский 5.1 Dub (МОСФИЛЬМ-МАСТЕР)"
Language : Russian
Service kind : Complete Main
Default : Yes
Forced : No
Dialog Normalization : -23 dB
compr : -0.28 dB
dmixmod : Lo/Ro
ltrtcmixlev : -3.0 dB
ltrtsurmixlev : -3.0 dB
lorocmixlev : -3.0 dB
lorosurmixlev : -3.0 dB
dialnorm_Average : -23 dB
dialnorm_Minimum : -23 dB
dialnorm_Maximum : -23 dB

Другие фильмы
У данной публикации пока нет комментариев.
Будь первым, оставь своё мнение в комментариях!
Информация
Посетители, находящиеся в группе Гости, не могут оставлять комментарии к данной публикации.
Самый популярный релиз недели
Донаты
Мы в соц. сетях / RSS

Лучшие релизы месяца
Лучшие SD недели
Лучшие 720p недели
Лучшие 1080p недели
Лучшие 4K недели
Вы недавно смотрели
Реклама
Последние комментарии
...

rmzshka

12 июля 2024 11:30

...

Rustik99

12 июля 2024 10:11

...

-=DoMiNo=-

11 июля 2024 23:42

...

rmzshka

11 июля 2024 11:28

...

-=DoMiNo=-

10 июля 2024 15:08

Реклама