+4

Черная вдова. Укус смерти / Sting (2024) WEB-DL 720p от селезень | P

Информация о фильме
Название: Черная вдова. Укус смерти
Оригинальное название: Sting
Год выпуска: 2024
Жанр: ужасы
Режиссер: Кия Роуч-Тернер / Kiah Roache-Turner
В ролях: Жермен Фаулер, Райан Корр, Алила Браун, Нони Хейзлхерст, Робин Невин, Пенелопа Митчелл, Дэнни Ким, Сильвия Коллока, Тони Джей Блэк, Роулэнд Холмс

О фильме:
Холодной ненастной ночью в комнату юной Шарлотты через окно падает необычное яйцо, из которого вылупляется странный паук. Зловещее создание становится тайным другом девочки, и ее не настораживает, что паук растет с невообразимой скоростью. Но когда начинают пропадать сначала питомцы соседей, а потом и они сами, Шарлотта понимает, что ее семья и другие выжившие попали в ловушку: за ними охотится гигантский паук, жаждущий человеческой плоти.

Выпущено: Австралия, США / Align, Pictures in Paradise, See Pictures
Продолжительность: 01:31:32
Перевод: Профессиональный (многоголосый, закадровый) | HDRezka Studio
Субтитры: Русские (Forced, Full (stirlooo)), английские (Full, SDH)

Файл
Формат: Matroska
Качество: WEB-DL 720p | AMZN
Видео: 1280@1272x688 at 23.976 fps, MPEG-4 AVC, ~4329 kbps
Аудио 1: AC3, 2 ch, ~192 kbps - | Русский | Черная вдова. Укус смерти / Sting (2024) WEB-DL 720p от селезень | P
Аудио 2: E-AC3, 6 ch, ~640 kbps - | Английский |
Формат субтитров: softsub (SRT)

Авторизуйтесь для получения доступа к скачиванию

Нет аккаунта? Регистрация открыта и займёт меньше минуты

Вход Регистрация

General
Unique ID : 288016963476067025112863958368675444187 (0xD8AE0CA86D841EEE18D0FABA4E0035DB)
Complete name : T:Sting.2024.AMZN.WEB-DL.720p.x264.seleZen.mkv
Format : Matroska
Format version : Version 4
File size : 3.30 GiB
Duration : 1 h 31 min
Overall bit rate : 5 162 kb/s
Frame rate : 24.000 FPS
Movie name : Sting.2024.AMZN.WEB-DL.720p.x264.seleZen
Encoded date : 2024-05-16 17:15:54 UTC
Writing application : mkvmerge v84.0 ('Sleeper') 64-bit
Writing library : libebml v1.4.5 + libmatroska v1.7.1
Cover : Yes
Attachments : cover.jpg / small_cover.jpg

Video
ID : 1
Format : AVC
Format/Info : Advanced Video Codec
Format profile : [email protected]
Format settings : CABAC / 4 Ref Frames
Format settings, CABAC : Yes
Format settings, Reference : 4 frames
Codec ID : V_MPEG4/ISO/AVC
Duration : 1 h 31 min
Bit rate mode : Constant
Bit rate : 4 329 kb/s
Nominal bit rate : 6 000 kb/s
Width : 1 280 pixels
Height : 688 pixels
Display aspect ratio : 1.85:1
Frame rate mode : Constant
Frame rate : 24.000 FPS
Color space : YUV
Chroma subsampling : 4:2:0
Bit depth : 8 bits
Scan type : Progressive
Bits/(Pixel*Frame) : 0.205
Stream size : 2.77 GiB (84%)
Title : -=DoMiNo=-
Language : English
Default : Yes
Forced : No
Color range : Limited
Color primaries : BT.709
Transfer characteristics : BT.709
Matrix coefficients : BT.709

Audio #1
ID : 2
Format : AC-3
Format/Info : Audio Coding 3
Commercial name : Dolby Digital
Codec ID : A_AC3
Duration : 1 h 31 min
Bit rate mode : Constant
Bit rate : 192 kb/s
Channel(s) : 2 channels
Channel layout : L R
Sampling rate : 48.0 kHz
Frame rate : 31.250 FPS (1536 SPF)
Compression mode : Lossy
Stream size : 126 MiB (4%)
Title : MVO -HDRezka Studio
Language : Russian
Service kind : Complete Main
Default : Yes
Forced : No
Dialog Normalization : -31 dB
dialnorm_Average : -31 dB
dialnorm_Minimum : -31 dB
dialnorm_Maximum : -31 dB

Audio #2
ID : 3
Format : E-AC-3
Format/Info : Enhanced AC-3
Commercial name : Dolby Digital Plus
Codec ID : A_EAC3
Duration : 1 h 31 min
Bit rate mode : Constant
Bit rate : 640 kb/s
Channel(s) : 6 channels
Channel layout : L R C LFE Ls Rs
Sampling rate : 48.0 kHz
Frame rate : 31.250 FPS (1536 SPF)
Compression mode : Lossy
Stream size : 419 MiB (12%)
Language : English
Service kind : Complete Main
Default : No
Forced : No
Dialog Normalization : -31 dB
compr : -0.28 dB
dialnorm_Average : -31 dB
dialnorm_Minimum : -31 dB
dialnorm_Maximum : -31 dB

Text #1
ID : 4
Format : UTF-8
Codec ID : S_TEXT/UTF8
Codec ID/Info : UTF-8 Plain Text
Duration : 1 h 21 min
Bit rate : 0 b/s
Frame rate : 0.002 FPS
Count of elements : 10
Stream size : 414 Bytes (0%)
Title : Forced_[rus]
Language : Russian
Default : No
Forced : No

Text #2
ID : 5
Format : UTF-8
Codec ID : S_TEXT/UTF8
Codec ID/Info : UTF-8 Plain Text
Duration : 1 h 24 min
Bit rate : 52 b/s
Frame rate : 0.141 FPS
Count of elements : 715
Stream size : 32.2 KiB (0%)
Title : Full -stirlooo 18+
Language : Russian
Default : No
Forced : No

Text #3
ID : 6
Format : UTF-8
Codec ID : S_TEXT/UTF8
Codec ID/Info : UTF-8 Plain Text
Duration : 1 h 26 min
Bit rate : 35 b/s
Frame rate : 0.154 FPS
Count of elements : 801
Stream size : 22.7 KiB (0%)
Language : English
Default : No
Forced : No

Text #4
ID : 7
Format : UTF-8
Codec ID : S_TEXT/UTF8
Codec ID/Info : UTF-8 Plain Text
Duration : 1 h 26 min
Bit rate : 45 b/s
Frame rate : 0.217 FPS
Count of elements : 1128
Stream size : 29.0 KiB (0%)
Title : SDH
Language : English
Default : No
Forced : No

Menu
00:00:00.000 : en:Scene 01
01:31:27.000 : en:End Credits

Другие фильмы
У данной публикации пока нет комментариев.
Будь первым, оставь своё мнение в комментариях!
Информация
Посетители, находящиеся в группе Гости, не могут оставлять комментарии к данной публикации.
Самый популярный релиз недели
Донаты
Мы в соц. сетях / RSS

Лучшие релизы месяца
Лучшие SD недели
Лучшие 720p недели
Лучшие 1080p недели
Лучшие 4K недели
Вы недавно смотрели
Реклама
Последние комментарии
...

Bonzo

14 июня 2024 14:52

...

rmzshka

13 июня 2024 17:48

...

rmzshka

13 июня 2024 12:24

...

LisNick

13 июня 2024 08:45

...

SkySpirit

8 июня 2024 19:54

Реклама